Guest User

Untitled

a guest
Feb 19th, 2021
135
Never
Not a member of Pastebin yet? Sign Up, it unlocks many cool features!
  1. Общее
  2. Уникальный идентификатор : 244106496787707264881400542702876566206 (0xB7A533806BA560B640A96A88D17922BE)
  3. Полное имя : I Care a Lot (2020) WEB-DLRip (1920x800) HEVC.mkv
  4. Формат : Matroska
  5. Версия формата : Version 4 / Version 2
  6. Размер файла : 4,39 Гбайт
  7. Продолжительность : 1 ч. 58 м.
  8. Общий поток : 5302 Кбит/сек
  9. Дата кодирования : UTC 2021-02-19 13:20:24
  10. Программа кодирования : mkvmerge v47.0.0 ('Black Flag') 64-bit
  11. Библиотека кодирования : libebml v1.3.10 + libmatroska v1.5.2
  12.  
  13. Видео
  14. Идентификатор : 1
  15. Формат : HEVC
  16. Формат/Информация : High Efficiency Video Coding
  17. Профиль формата : Main 10@L4@High
  18. Идентификатор кодека : V_MPEGH/ISO/HEVC
  19. Продолжительность : 1 ч. 58 м.
  20. Битрейт : 4531 Кбит/сек
  21. Ширина : 1920 пикселей
  22. Высота : 800 пикселей
  23. Соотношение сторон : 2,40:1
  24. Режим частоты кадров : Постоянный
  25. Частота кадров : 23,976 (24000/1001) кадра/сек
  26. Цветовое пространство : YUV
  27. Субдискретизация насыщенности : 4:2:0
  28. Битовая глубина : 10 бит
  29. Бит/(Пиксели*Кадры) : 0.123
  30. Размер потока : 3,75 Гбайт (85%)
  31. Default : Да
  32. Forced : Нет
  33. Цветовой диапазон : Limited
  34. Основные цвета : BT.709
  35. Характеристики трансфера : BT.709
  36. Коэффициенты матрицы : BT.709
  37.  
  38. Аудио #1
  39. Идентификатор : 2
  40. Формат : AC-3
  41. Формат/Информация : Audio Coding 3
  42. Параметр Endianness формата : Big
  43. Идентификатор кодека : A_AC3
  44. Продолжительность : 1 ч. 58 м.
  45. Вид битрейта : Постоянный
  46. Битрейт : 384 Кбит/сек
  47. Каналы : 6 каналов
  48. Расположение каналов : Front: L C R, Side: L R, LFE
  49. Частота : 48,0 КГц
  50. Частота кадров : 31,250 кадров/сек (1536 SPF)
  51. Битовая глубина : 16 бит
  52. Метод сжатия : С потерями
  53. Размер потока : 326 Мбайт (7%)
  54. Заголовок : DUB (Netflix)
  55. Язык : Russian
  56. ServiceKind/String : Complete Main
  57. Default : Да
  58. Forced : Да
  59.  
  60. Аудио #2
  61. Идентификатор : 3
  62. Формат : AC-3
  63. Формат/Информация : Audio Coding 3
  64. Параметр Endianness формата : Big
  65. Идентификатор кодека : A_AC3
  66. Продолжительность : 1 ч. 58 м.
  67. Вид битрейта : Постоянный
  68. Битрейт : 384 Кбит/сек
  69. Каналы : 6 каналов
  70. Расположение каналов : Front: L C R, Side: L R, LFE
  71. Частота : 48,0 КГц
  72. Частота кадров : 31,250 кадров/сек (1536 SPF)
  73. Битовая глубина : 16 бит
  74. Метод сжатия : С потерями
  75. Размер потока : 326 Мбайт (7%)
  76. Язык : English
  77. ServiceKind/String : Complete Main
  78. Default : Нет
  79. Forced : Нет
  80.  
  81. Текст #1
  82. Идентификатор : 4
  83. Формат : UTF-8
  84. Идентификатор кодека : S_TEXT/UTF8
  85. Идентификатор кодека/Информация : UTF-8 Plain Text
  86. Продолжительность : 1 ч. 50 м.
  87. Битрейт : 1 бит/сек
  88. ElementCount : 24
  89. Размер потока : 973 байт (0%)
  90. Заголовок : Forced
  91. Язык : Russian
  92. Default : Да
  93. Forced : Нет
  94.  
  95. Текст #2
  96. Идентификатор : 5
  97. Формат : UTF-8
  98. Идентификатор кодека : S_TEXT/UTF8
  99. Идентификатор кодека/Информация : UTF-8 Plain Text
  100. Продолжительность : 1 ч. 57 м.
  101. Битрейт : 75 бит/сек
  102. ElementCount : 1327
  103. Размер потока : 65,1 Кбайт (0%)
  104. Заголовок : Full
  105. Язык : Russian
  106. Default : Нет
  107. Forced : Нет
  108.  
  109. Текст #3
  110. Идентификатор : 6
  111. Формат : UTF-8
  112. Идентификатор кодека : S_TEXT/UTF8
  113. Идентификатор кодека/Информация : UTF-8 Plain Text
  114. Продолжительность : 1 ч. 52 м.
  115. Битрейт : 54 бит/сек
  116. ElementCount : 1339
  117. Размер потока : 44,8 Кбайт (0%)
  118. Заголовок : SDH
  119. Язык : English
  120. Default : Нет
  121. Forced : Нет
  122.  
  123. Меню
  124. 00:00:00.000 : en:Amazon Original
  125. 00:00:06.000 : en:Studio Logos
  126. 00:00:43.000 : en:Opening Credits
  127. 00:01:09.000 : en:Not good people
  128. 00:03:05.000 : en:A day in court
  129. 00:06:29.000 : en:Threats
  130. 00:07:41.000 : en:A day at the office
  131. 00:10:10.000 : en:A cherry
  132. 00:12:57.000 : en:Researching a new client
  133. 00:15:30.000 : en:Picking up Mrs. Peterson
  134. 00:22:53.000 : en:Going through the assets
  135. 00:26:33.000 : en:Unexpected visitor
  136. 00:27:59.000 : en:Reporting back to the boss
  137. 00:31:56.000 : en:The diamonds
  138. 00:33:17.000 : en:Roman finds his mother
  139. 00:36:01.000 : en:A meeting with Marla
  140. 00:44:47.000 : en:The worst mistake she'll ever make
  141. 00:49:01.000 : en:A trip to the bank
  142. 00:50:08.000 : en:A scandal for the judge
  143. 00:53:38.000 : en:Roman throws a fit
  144. 00:54:09.000 : en:A tour of the facility
  145. 00:54:54.000 : en:The truth about Mrs. Peterson
  146. 01:00:20.000 : en:Police interview
  147. 01:01:54.000 : en:Calling in a favor
  148. 01:03:23.000 : en:Panic at home
  149. 01:05:27.000 : en:Marla refuses to lose
  150. 01:08:14.000 : en:Moving to a psych facility
  151. 01:10:07.000 : en:Fencing the diamonds
  152. 01:12:25.000 : en:A break in
  153. 01:12:55.000 : en:You can't spend money when you're dead
  154. 01:23:04.000 : en:Trying to survive
  155. 01:32:38.000 : en:Making a plan
  156. 01:41:38.000 : en:A new opportunity
  157. 01:48:30.000 : en:A very rich woman
  158. 01:52:54.000 : en:End Credits
  159.  
RAW Paste Data