SHARE
TWEET

Welcome to Marwen BluRay 720p

dirtyharrys Mar 28th, 2019 (edited) 89 Never
Not a member of Pastebin yet? Sign Up, it unlocks many cool features!
  1. General
  2. Unique ID                   : 22025298849002339533482586757185565368 (0x1091EB13012D40285735650BC66E72B8)
  3. Complete name               : E:\QlJSV2VsY29tZXRvTWFyd2Vu.mkv
  4. Format                      : Matroska
  5. Format version              : Version 4
  6. File size                   : 1.96 GiB
  7. Duration                    : 1 h 55 min
  8. Overall bit rate            : 2 417 kb/s
  9. Movie name                  : Welcome to Marwen BR-RIP / Welcome to Marwen BR-RIP
  10. Encoded date                : UTC 2019-03-30 08:12:59
  11. Writing application         : mkvmerge v30.1.0 ('Forever And More') 32-bit
  12. Writing library             : libebml v1.3.6 + libmatroska v1.4.9
  13. Copyright                   : Movies HDs 2019
  14. ARTIST                      : HarshLearner
  15.  
  16. Video
  17. ID                          : 1
  18. Format                      : AVC
  19. Format/Info                 : Advanced Video Codec
  20. Format profile              : High@L4.1
  21. Format settings             : CABAC / 4 Ref Frames
  22. Format settings, CABAC      : Yes
  23. Format settings, ReFrames   : 4 frames
  24. Codec ID                    : V_MPEG4/ISO/AVC
  25. Duration                    : 1 h 55 min
  26. Bit rate                    : 1 500 kb/s
  27. Width                       : 1 280 pixels
  28. Height                      : 536 pixels
  29. Display aspect ratio        : 2.40:1
  30. Frame rate mode             : Constant
  31. Frame rate                  : 23.976 (24000/1001) FPS
  32. Original frame rate         : 23.976 (23976/1000) FPS
  33. Color space                 : YUV
  34. Chroma subsampling          : 4:2:0
  35. Bit depth                   : 8 bits
  36. Scan type                   : Progressive
  37. Bits/(Pixel*Frame)          : 0.091
  38. Stream size                 : 1.21 GiB (62%)
  39. Title                       : Welcome to Marwen
  40. Writing library             : x264 core 152 r2851M ba24899
  41. Default                     : Yes
  42. Forced                      : No
  43.  
  44. Audio #1
  45. ID                          : 2
  46. Format                      : AC-3
  47. Format/Info                 : Audio Coding 3
  48. Commercial name             : Dolby Digital
  49. Codec ID                    : A_AC3
  50. Duration                    : 1 h 55 min
  51. Bit rate mode               : Constant
  52. Bit rate                    : 448 kb/s
  53. Channel(s)                  : 6 channels
  54. Channel layout              : L R C LFE Ls Rs
  55. Sampling rate               : 48.0 kHz
  56. Frame rate                  : 31.250 FPS (1536 SPF)
  57. Bit depth                   : 16 bits
  58. Compression mode            : Lossy
  59. Stream size                 : 372 MiB (19%)
  60. Language                    : English
  61. Service kind                : Complete Main
  62. Default                     : No
  63. Forced                      : No
  64.  
  65. Audio #2
  66. ID                          : 3
  67. Format                      : AC-3
  68. Format/Info                 : Audio Coding 3
  69. Commercial name             : Dolby Digital
  70. Codec ID                    : A_AC3
  71. Duration                    : 1 h 55 min
  72. Bit rate mode               : Constant
  73. Bit rate                    : 448 kb/s
  74. Channel(s)                  : 6 channels
  75. Channel layout              : L R C LFE Ls Rs
  76. Sampling rate               : 48.0 kHz
  77. Frame rate                  : 31.250 FPS (1536 SPF)
  78. Bit depth                   : 16 bits
  79. Compression mode            : Lossy
  80. Stream size                 : 372 MiB (19%)
  81. Language                    : Spanish
  82. Service kind                : Complete Main
  83. Default                     : Yes
  84. Forced                      : Yes
  85.  
  86. Text #1
  87. ID                          : 4
  88. Format                      : PGS
  89. Muxing mode                 : zlib
  90. Codec ID                    : S_HDMV/PGS
  91. Codec ID/Info               : Picture based subtitle format used on BDs/HD-DVDs
  92. Duration                    : 1 h 54 min
  93. Bit rate                    : 33.8 kb/s
  94. Count of elements           : 2628
  95. Stream size                 : 27.7 MiB (1%)
  96. Language                    : Spanish
  97. Default                     : No
  98. Forced                      : No
  99.  
  100. Text #2
  101. ID                          : 5
  102. Format                      : PGS
  103. Muxing mode                 : zlib
  104. Codec ID                    : S_HDMV/PGS
  105. Codec ID/Info               : Picture based subtitle format used on BDs/HD-DVDs
  106. Duration                    : 1 h 54 min
  107. Bit rate                    : 1 046 b/s
  108. Count of elements           : 68
  109. Stream size                 : 879 KiB (0%)
  110. Language                    : Spanish
  111. Default                     : No
  112. Forced                      : No
  113.  
  114. Text #3
  115. ID                          : 6
  116. Format                      : UTF-8
  117. Codec ID                    : S_TEXT/UTF8
  118. Codec ID/Info               : UTF-8 Plain Text
  119. Duration                    : 1 h 46 min
  120. Bit rate                    : 52 b/s
  121. Count of elements           : 1464
  122. Stream size                 : 41.2 KiB (0%)
  123. Language                    : English
  124. Default                     : No
  125. Forced                      : No
  126.  
  127. Text #4
  128. ID                          : 7
  129. Format                      : UTF-8
  130. Codec ID                    : S_TEXT/UTF8
  131. Codec ID/Info               : UTF-8 Plain Text
  132. Duration                    : 1 h 46 min
  133. Bit rate                    : 60 b/s
  134. Count of elements           : 1662
  135. Stream size                 : 46.9 KiB (0%)
  136. Title                       : SDH
  137. Language                    : English
  138. Default                     : No
  139. Forced                      : No
  140.  
  141. Text #5
  142. ID                          : 8
  143. Format                      : UTF-8
  144. Codec ID                    : S_TEXT/UTF8
  145. Codec ID/Info               : UTF-8 Plain Text
  146. Duration                    : 1 h 47 min
  147. Bit rate                    : 49 b/s
  148. Count of elements           : 1357
  149. Stream size                 : 38.9 KiB (0%)
  150. Language                    : Spanish
  151. Default                     : Yes
  152. Forced                      : Yes
  153.  
  154. Text #6
  155. ID                          : 9
  156. Format                      : UTF-8
  157. Codec ID                    : S_TEXT/UTF8
  158. Codec ID/Info               : UTF-8 Plain Text
  159. Duration                    : 1 h 48 min
  160. Bit rate                    : 1 b/s
  161. Count of elements           : 34
  162. Stream size                 : 1.05 KiB (0%)
  163. Language                    : Spanish
  164. Default                     : No
  165. Forced                      : No
  166.  
  167. Menu
  168. 00:00:00.000                : :Chapter 01
  169. 00:04:17.257                : :Chapter 02
  170. 00:10:57.448                : :Chapter 03
  171. 00:16:42.877                : :Chapter 04
  172. 00:22:26.971                : :Chapter 05
  173. 00:27:34.820                : :Chapter 06
  174. 00:35:10.775                : :Chapter 07
  175. 00:41:09.217                : :Chapter 08
  176. 00:45:59.256                : :Chapter 09
  177. 00:51:35.634                : :Chapter 10
  178. 01:00:35.924                : :Chapter 11
  179. 01:03:30.974                : :Chapter 12
  180. 01:08:07.250                : :Chapter 13
  181. 01:13:38.706                : :Chapter 14
  182. 01:17:14.713                : :Chapter 15
  183. 01:25:13.525                : :Capítulo 16
  184. 01:30:48.485                : :Capítulo 17
  185. 01:39:34.719                : :Capítulo 18
  186. 01:43:31.372                : :Capítulo 19
RAW Paste Data
We use cookies for various purposes including analytics. By continuing to use Pastebin, you agree to our use of cookies as described in the Cookies Policy. OK, I Understand
 
Top