SHARE
TWEET

Paradise Beach WEB-RIP 1080p

dirtyharrys Nov 22nd, 2019 94 Never
Not a member of Pastebin yet? Sign Up, it unlocks many cool features!
  1. General
  2. Unique ID                   : 221505284306405928842961168789287548875 (0xA6A45DB16D5167729A55EE3D769537CB)
  3. Complete name               : E:\Paradise.Beach.2019.1080p.NF.WEBRip.x264\Paradise.Beach.2019.1080p.NF.WEBRip.x264.mkv
  4. Format                      : Matroska
  5. Format version              : Version 4
  6. File size                   : 3.87 GiB
  7. Duration                    : 1 h 34 min
  8. Overall bit rate mode       : Variable
  9. Overall bit rate            : 5 887 kb/s
  10. Movie name                  : Paradise Beach WEB-RIP / Paradise Beach WEB-RIP
  11. Encoded date                : UTC 2019-11-09 07:13:04
  12. Writing application         : mkvmerge v30.1.0 ('Forever And More') 32-bit
  13. Writing library             : libebml v1.3.6 + libmatroska v1.4.9
  14. Copyright                   : HARSHLEARNER
  15.  
  16. Video
  17. ID                          : 1
  18. Format                      : AVC
  19. Format/Info                 : Advanced Video Codec
  20. Format profile              : Main@L4
  21. Format settings             : CABAC / 3 Ref Frames
  22. Format settings, CABAC      : Yes
  23. Format settings, ReFrames   : 3 frames
  24. Codec ID                    : V_MPEG4/ISO/AVC
  25. Duration                    : 1 h 34 min
  26. Bit rate mode               : Variable
  27. Bit rate                    : 4 640 kb/s
  28. Maximum bit rate            : 6 960 kb/s
  29. Width                       : 1 920 pixels
  30. Height                      : 1 080 pixels
  31. Display aspect ratio        : 16:9
  32. Frame rate mode             : Constant
  33. Frame rate                  : 24.000 FPS
  34. Color space                 : YUV
  35. Chroma subsampling          : 4:2:0
  36. Bit depth                   : 8 bits
  37. Scan type                   : Progressive
  38. Bits/(Pixel*Frame)          : 0.093
  39. Stream size                 : 3.03 GiB (78%)
  40. Title                       : Paradise Beach
  41. Writing library             : x264 core 148 r2715 7e75228
  42. Encoding settings           : cabac=1 / ref=3 / deblock=1:0:0 / analyse=0x1:0x111 / me=umh / subme=10 / psy=1 / psy_rd=1.00:0.00 / mixed_ref=1 / me_range=24 / chroma_me=1 / trellis=2 / 8x8dct=0 / cqm=0 / deadzone=21,11 / fast_pskip=1 / chroma_qp_offset=-2 / threads=6 / lookahead_threads=1 / sliced_threads=0 / nr=0 / decimate=1 / interlaced=0 / bluray_compat=0 / stitchable=1 / constrained_intra=0 / bframes=2 / b_pyramid=0 / b_adapt=2 / b_bias=0 / direct=3 / weightb=1 / open_gop=0 / weightp=2 / keyint=250 / keyint_min=24 / scenecut=0 / intra_refresh=0 / rc_lookahead=48 / rc=2pass / mbtree=1 / bitrate=4640 / ratetol=1.0 / qcomp=0.50 / qpmin=6 / qpmax=51 / qpstep=4 / cplxblur=20.0 / qblur=0.5 / vbv_maxrate=6960 / vbv_bufsize=9280 / nal_hrd=vbr / filler=0 / ip_ratio=1.40 / aq=1:1.00
  43. Default                     : Yes
  44. Forced                      : No
  45.  
  46. Audio #1
  47. ID                          : 2
  48. Format                      : E-AC-3
  49. Format/Info                 : Enhanced AC-3
  50. Commercial name             : Dolby Digital Plus
  51. Codec ID                    : A_EAC3
  52. Duration                    : 1 h 33 min
  53. Bit rate mode               : Constant
  54. Bit rate                    : 640 kb/s
  55. Channel(s)                  : 6 channels
  56. Channel layout              : L R C LFE Ls Rs
  57. Sampling rate               : 48.0 kHz
  58. Frame rate                  : 31.250 FPS (1536 SPF)
  59. Compression mode            : Lossy
  60. Stream size                 : 429 MiB (11%)
  61. Title                       : French
  62. Language                    : French
  63. Service kind                : Complete Main
  64. Default                     : No
  65. Forced                      : No
  66.  
  67. Audio #2
  68. ID                          : 3
  69. Format                      : E-AC-3
  70. Format/Info                 : Enhanced AC-3
  71. Commercial name             : Dolby Digital Plus
  72. Codec ID                    : A_EAC3
  73. Duration                    : 1 h 33 min
  74. Bit rate mode               : Constant
  75. Bit rate                    : 640 kb/s
  76. Channel(s)                  : 6 channels
  77. Channel layout              : L R C LFE Ls Rs
  78. Sampling rate               : 48.0 kHz
  79. Frame rate                  : 31.250 FPS (1536 SPF)
  80. Compression mode            : Lossy
  81. Stream size                 : 429 MiB (11%)
  82. Title                       : Spanish
  83. Language                    : Spanish
  84. Service kind                : Complete Main
  85. Default                     : Yes
  86. Forced                      : Yes
  87.  
  88. Text #1
  89. ID                          : 4
  90. Format                      : UTF-8
  91. Codec ID                    : S_TEXT/UTF8
  92. Codec ID/Info               : UTF-8 Plain Text
  93. Duration                    : 1 h 28 min
  94. Bit rate                    : 44 b/s
  95. Count of elements           : 1070
  96. Stream size                 : 28.5 KiB (0%)
  97. Title                       : English
  98. Language                    : English
  99. Default                     : No
  100. Forced                      : No
  101.  
  102. Text #2
  103. ID                          : 5
  104. Format                      : UTF-8
  105. Codec ID                    : S_TEXT/UTF8
  106. Codec ID/Info               : UTF-8 Plain Text
  107. Duration                    : 1 h 28 min
  108. Bit rate                    : 50 b/s
  109. Count of elements           : 1191
  110. Stream size                 : 32.6 KiB (0%)
  111. Title                       : English SDH
  112. Language                    : English
  113. Default                     : No
  114. Forced                      : No
  115.  
  116. Text #3
  117. ID                          : 6
  118. Format                      : UTF-8
  119. Codec ID                    : S_TEXT/UTF8
  120. Codec ID/Info               : UTF-8 Plain Text
  121. Duration                    : 1 h 28 min
  122. Bit rate                    : 45 b/s
  123. Count of elements           : 1052
  124. Stream size                 : 29.6 KiB (0%)
  125. Title                       : Spanish
  126. Language                    : Spanish
  127. Default                     : Yes
  128. Forced                      : Yes
  129.  
  130. Text #4
  131. ID                          : 7
  132. Format                      : UTF-8
  133. Codec ID                    : S_TEXT/UTF8
  134. Codec ID/Info               : UTF-8 Plain Text
  135. Duration                    : 1 h 33 min
  136. Bit rate                    : 7 b/s
  137. Count of elements           : 213
  138. Stream size                 : 5.41 KiB (0%)
  139. Title                       : Spanish
  140. Language                    : Spanish
  141. Default                     : No
  142. Forced                      : No
RAW Paste Data
We use cookies for various purposes including analytics. By continuing to use Pastebin, you agree to our use of cookies as described in the Cookies Policy. OK, I Understand
Not a member of Pastebin yet?
Sign Up, it unlocks many cool features!
 
Top