SHARE
TWEET

dEvVgS9Be5yk.mkv

iMN0 Jul 20th, 2018 7 Never
Not a member of Pastebin yet? Sign Up, it unlocks many cool features!
  1. General
  2. Unique ID                                : 36533245804262363852324213850969914552 (0x1B7C0C15B1681200A8EE62000602BCB8)
  3. Complete name                            : dEvVgS9Be5yk.mkv
  4. Format                                   : Matroska
  5. Format version                           : Version 4 / Version 2
  6. File size                                : 23.0 GiB
  7. Duration                                 : 1h 33mn
  8. Overall bit rate mode                    : Variable
  9. Overall bit rate                         : 35.3 Mbps
  10. Encoded date                             : UTC 2018-07-17 17:42:15
  11. Writing application                      : mkvmerge v25.0.0 ('Prog Noir') 64-bit
  12. Writing library                          : libebml v1.3.6 + libmatroska v1.4.9
  13.  
  14. Video
  15. ID                                       : 1
  16. Format                                   : AVC
  17. Format/Info                              : Advanced Video Codec
  18. Format profile                           : High@L4.1
  19. Format settings, CABAC                   : Yes
  20. Format settings, ReFrames                : 3 frames
  21. Codec ID                                 : V_MPEG4/ISO/AVC
  22. Duration                                 : 1h 33mn
  23. Bit rate mode                            : Variable
  24. Bit rate                                 : 35.0 Mbps
  25. Maximum bit rate                         : 38.0 Mbps
  26. Width                                    : 1 920 pixels
  27. Height                                   : 1 080 pixels
  28. Display aspect ratio                     : 16:9
  29. Frame rate mode                          : Constant
  30. Frame rate                               : 23.976 (24000/1001) fps
  31. Color space                              : YUV
  32. Chroma subsampling                       : 4:2:0
  33. Bit depth                                : 8 bits
  34. Scan type                                : Progressive
  35. Bits/(Pixel*Frame)                       : 0.704
  36. Stream size                              : 22.2 GiB (96%)
  37. Title                                    : MPEG-4 AVC Video / 34026 kbps / 1080p / 23.976 fps / 16:9 / High Profile 4.1
  38. Writing library                          : x264 core 148 r2744 b97ae06
  39. Encoding settings                        : cabac=1 / ref=4 / deblock=1:0:0 / analyse=0x3:0x133 / me=umh / subme=10 / psy=1 / psy_rd=1.00:0.00 / mixed_ref=1 / me_range=24 / chroma_me=1 / trellis=2 / 8x8dct=1 / cqm=0 / deadzone=21,11 / fast_pskip=1 / chroma_qp_offset=-5 / threads=12 / lookahead_threads=1 / sliced_threads=0 / slices=4 / nr=0 / decimate=1 / interlaced=0 / bluray_compat=1 / stitchable=1 / constrained_intra=0 / bframes=3 / b_pyramid=1 / b_adapt=2 / b_bias=0 / direct=3 / weightb=1 / open_gop=1 / weightp=1 / keyint=24 / keyint_min=1 / scenecut=40 / intra_refresh=0 / rc_lookahead=24 / rc=2pass / mbtree=1 / bitrate=35000 / ratetol=0.1 / qcomp=0.00 / qpmin=0 / qpmax=69 / qpstep=4 / cplxblur=20.0 / qblur=0.5 / vbv_maxrate=38000 / vbv_bufsize=30000 / nal_hrd=vbr / filler=0 / ip_ratio=1.40 / aq=1:1.00
  40. Language                                 : English
  41. Default                                  : Yes
  42. Forced                                   : No
  43. Color range                              : Limited
  44. Color primaries                          : BT.709
  45. Transfer characteristics                 : BT.709
  46. Matrix coefficients                      : BT.709
  47.  
  48. Audio #1
  49. ID                                       : 2
  50. Format                                   : DTS
  51. Format/Info                              : Digital Theater Systems
  52. Format profile                           : MA / Core
  53. Mode                                     : 16
  54. Format settings, Endianness              : Big
  55. Codec ID                                 : A_DTS
  56. Duration                                 : 1h 33mn
  57. Bit rate mode                            : Variable / Constant
  58. Bit rate                                 : 864 Kbps / 510 Kbps
  59. Channel(s)                               : 2 channels
  60. Channel positions                        : Front: L R
  61. Sampling rate                            : 48.0 KHz
  62. Frame rate                               : 93.750 fps (512 spf)
  63. Bit depth                                : 16 bits
  64. Compression mode                         : Lossless / Lossy
  65. Stream size                              : 577 MiB (2%)
  66. Title                                    : DTS-HD Master Audio / 2.0 / 48 kHz / 864 kbps / 16-bit
  67. Language                                 : English
  68. Default                                  : Yes
  69. Forced                                   : No
  70.  
  71. Audio #2
  72. ID                                       : 3
  73. Format                                   : FLAC
  74. Format/Info                              : Free Lossless Audio Codec
  75. Codec ID                                 : A_FLAC
  76. Duration                                 : 1h 33mn
  77. Bit rate mode                            : Variable
  78. Bit rate                                 : 440 Kbps
  79. Channel(s)                               : 2 channels
  80. Channel positions                        : Front: L R
  81. Sampling rate                            : 48.0 KHz
  82. Frame rate                               : 11.719 fps (4096 spf)
  83. Bit depth                                : 16 bits
  84. Stream size                              : 294 MiB (1%)
  85. Title                                    : Commentary with Mike Figgis, moderated by critic Damon Wise / FLAC Audio / 2.0 / 48 kHz / 440 kbps / 16-bit
  86. Writing library                          : libFLAC 1.3.2 (UTC 2017-01-01)
  87. Language                                 : English
  88. Default                                  : No
  89. Forced                                   : No
  90.  
  91. Text #1
  92. ID                                       : 4
  93. Format                                   : UTF-8
  94. Codec ID                                 : S_TEXT/UTF8
  95. Codec ID/Info                            : UTF-8 Plain Text
  96. Duration                                 : 1h 24mn
  97. Bit rate                                 : 38 bps
  98. Count of elements                        : 695
  99. Stream size                              : 23.6 KiB (0%)
  100. Language                                 : English
  101. Default                                  : No
  102. Forced                                   : No
  103.  
  104. Text #2
  105. ID                                       : 5
  106. Format                                   : PGS
  107. Muxing mode                              : zlib
  108. Codec ID                                 : S_HDMV/PGS
  109. Codec ID/Info                            : Picture based subtitle format used on BDs/HD-DVDs
  110. Duration                                 : 1h 27mn
  111. Bit rate                                 : 22.7 Kbps
  112. Count of elements                        : 1623
  113. Stream size                              : 14.2 MiB (0%)
  114. Title                                    : SDH
  115. Language                                 : English
  116. Default                                  : No
  117. Forced                                   : No
  118.  
  119. Menu
  120. 00:00:00.000                             : en:Chapter 1
  121. 00:07:55.266                             : en:Chapter 2
  122. 00:15:56.205                             : en:Chapter 3
  123. 00:21:53.062                             : en:Chapter 4
  124. 00:27:42.703                             : en:Chapter 5
  125. 00:34:19.266                             : en:Chapter 6
  126. 00:42:54.238                             : en:Chapter 7
  127. 00:51:41.557                             : en:Chapter 8
  128. 01:00:09.940                             : en:Chapter 9
  129. 01:08:04.330                             : en:Chapter 10
  130. 01:15:08.921                             : en:Chapter 11
  131. 01:22:31.738                             : en:Chapter 12
RAW Paste Data
We use cookies for various purposes including analytics. By continuing to use Pastebin, you agree to our use of cookies as described in the Cookies Policy. OK, I Understand
Not a member of Pastebin yet?
Sign Up, it unlocks many cool features!
 
Top