Guest User

Untitled

a guest
Feb 2nd, 2014
39
Never
Not a member of Pastebin yet? Sign Up, it unlocks many cool features!
  1. === Общие ===
  2. Полное имя : Seti.1952.DVDRip.XviD.pca1962.avi
  3. Формат : AVI
  4. Описание формата : Audio Video Interleave
  5. Размер файла : 1.47 Гб
  6. Длительность : 1ч 33мин
  7. Общий битрейт : 2 252 кбит/сек
  8. Програмное обеспечение : VirtualDubModRus 1.5.10.2 (build 2542/release)
  9. Кодирующая библиотека : VirtualDubMod build 2542/release
  10.  
  11. === Видео ===
  12. ID (Идентификатор) : 0
  13. Формат : MPEG-4 Visual
  14. Профиль формата : Advanced Simple@L5
  15. Параметр 'BVOP' : 1
  16. Параметр 'QPel' : Нет
  17. Параметр 'GMC' : No warppoints
  18. Параметр 'Matrix' : Default (H.263)
  19. Идентификатор кодека : XVID
  20. Подпись кодека : XviD
  21. Длительность : 1ч 33мин
  22. Битрейт : 1 950 кбит/сек
  23. Ширина кадра : 640 пикселей
  24. Высота кадра : 496 пикселей
  25. Соотношение сторон : 1.290
  26. Частота кадров : 23.976 кадров/сек
  27. Цветовое пространство : YUV
  28. Субдискретизация насыщенности : 4:2:0
  29. Глубина (разрядность) : 8 bits
  30. Тип развертки : Прогрессивная
  31. Режим сжатия : С потерями
  32. Бит/(пиксель*кадр) : 0.256
  33. Размер потока : 1.27 Гб (87%)
  34. Кодирующая библиотека : XviD 1.2.0SMP (UTC 2006-01-08)
  35.  
  36. === Аудио 1 ===
  37. ID (Идентификатор) : 1
  38. Формат : AC-3
  39. Описание формата : Audio Coding 3
  40. Mode extension : CM (complete main)
  41. Идентификатор кодека : 2000
  42. Длительность : 1ч 33мин
  43. Тип битрейта : Постоянный
  44. Битрейт : 160 кбит/сек
  45. Канал(ы) : 2 каналов
  46. Расположение каналов : Front: L R
  47. Частота дискретизации : 48.0 кГц
  48. Глубина (разрядность) : 16 bits
  49. Режим сжатия : С потерями
  50. Размер потока : 107 Мб (7%)
  51. Расположение потока : Split accross interleaves
  52. Период чередования : 42 мс (1.00 video frame)
  53. Предварительная загрузка : 500 мс
  54.  
  55. === Аудио 2 ===
  56. ID (Идентификатор) : 2
  57. Формат : MPEG Audio
  58. Версия формата : Version 1
  59. Профиль формата : Layer 3
  60. Режим : Joint stereo
  61. Mode extension : MS Stereo
  62. Идентификатор кодека : 55
  63. Подпись кодека : MP3
  64. Длительность : 1ч 33мин
  65. Тип битрейта : Постоянный
  66. Битрейт : 128 кбит/сек
  67. Канал(ы) : 2 каналов
  68. Частота дискретизации : 48.0 кГц
  69. Режим сжатия : С потерями
  70. Размер потока : 85.6 Мб (6%)
  71. Расположение потока : Aligned on interleaves
  72. Период чередования : 42 мс (1.00 video frame)
  73. Предварительная загрузка : 504 мс
  74. Кодирующая библиотека : LAME3.98.2
RAW Paste Data