SHARE
TWEET

Untitled

mft39anton Jun 28th, 2019 81 Never
Not a member of Pastebin yet? Sign Up, it unlocks many cool features!
  1. General
  2. Unique ID                                : 101728985569282063150315400333232951878 (0x4C884A3A4B5CD98975802D17B85BD246)
  3. Complete name                            : H:\jdownloader2\My First Miracle 2016 ITA ENG AC3 WEBDL 1080p CLDCREW\My.First.Miracle.2016.ITA.ENG.AC3.WEBDL.1080p.CLDCREW.mkv
  4. Format                                   : Matroska
  5. Format version                           : Version 4
  6. File size                                : 11.7 GiB
  7. Duration                                 : 1 h 47 min
  8. Overall bit rate                         : 15.7 Mb/s
  9. Writing application                      : Lavf56.30.100
  10. Writing library                          : Lavf56.30.100
  11.  
  12. Video
  13. ID                                       : 1
  14. Format                                   : AVC
  15. Format/Info                              : Advanced Video Codec
  16. Format profile                           : Main@L4
  17. Format settings                          : CABAC / 4 Ref Frames
  18. Format settings, CABAC                   : Yes
  19. Format settings, Reference frames        : 4 frames
  20. Codec ID                                 : V_MPEG4/ISO/AVC
  21. Duration                                 : 1 h 47 min
  22. Bit rate                                 : 14.9 Mb/s
  23. Width                                    : 1 920 pixels
  24. Height                                   : 1 080 pixels
  25. Display aspect ratio                     : 16:9
  26. Frame rate mode                          : Constant
  27. Frame rate                               : 24.000 FPS
  28. Color space                              : YUV
  29. Chroma subsampling                       : 4:2:0
  30. Bit depth                                : 8 bits
  31. Scan type                                : Progressive
  32. Bits/(Pixel*Frame)                       : 0.300
  33. Stream size                              : 11.2 GiB (95%)
  34. Title                                    : h264 1920x1080 16/9
  35. Default                                  : No
  36. Forced                                   : No
  37. Track/Position                           : 0
  38.  
  39. Audio
  40. ID                                       : 2
  41. Format                                   : AC-3
  42. Format/Info                              : Audio Coding 3
  43. Commercial name                          : Dolby Digital
  44. Codec ID                                 : A_AC3
  45. Duration                                 : 1 h 47 min
  46. Bit rate mode                            : Constant
  47. Bit rate                                 : 448 kb/s
  48. Channel(s)                               : 6 channels
  49. Channel layout                           : L R C LFE Ls Rs
  50. Sampling rate                            : 48.0 kHz
  51. Frame rate                               : 31.250 FPS (1536 SPF)
  52. Bit depth                                : 16 bits
  53. Compression mode                         : Lossy
  54. Stream size                              : 343 MiB (3%)
  55. Title                                    : ac3 48000Hz 6Ch.
  56. Language                                 : Italian
  57. Service kind                             : Complete Main
  58. Default                                  : No
  59. Forced                                   : No
  60. Track/Position                           : 1
  61.  
  62. Text #1
  63. ID                                       : 3
  64. Format                                   : UTF-8
  65. Codec ID                                 : S_TEXT/UTF8
  66. Codec ID/Info                            : UTF-8 Plain Text
  67. Duration                                 : 1 h 40 min
  68. Bit rate                                 : 52 b/s
  69. Count of elements                        : 1028
  70. Stream size                              : 38.3 KiB (0%)
  71. Title                                    : subrip 1920x1080
  72. Language                                 : Italian
  73. Default                                  : Yes
  74. Forced                                   : No
  75. Track/Position                           : 2
  76.  
  77. Text #2
  78. ID                                       : 4
  79. Format                                   : UTF-8
  80. Codec ID                                 : S_TEXT/UTF8
  81. Codec ID/Info                            : UTF-8 Plain Text
  82. Duration                                 : 1 h 40 min
  83. Bit rate                                 : 52 b/s
  84. Count of elements                        : 1055
  85. Stream size                              : 38.1 KiB (0%)
  86. Title                                    : subrip 1920x1080
  87. Language                                 : English
  88. Default                                  : Yes
  89. Forced                                   : No
  90. Track/Position                           : 3
RAW Paste Data
We use cookies for various purposes including analytics. By continuing to use Pastebin, you agree to our use of cookies as described in the Cookies Policy. OK, I Understand
Not a member of Pastebin yet?
Sign Up, it unlocks many cool features!
 
Top