SHARE
TWEET

Untitled

a guest Jan 21st, 2020 72 Never
Not a member of Pastebin yet? Sign Up, it unlocks many cool features!
  1. x265 info: frame I: 2047, Avg QP:16.30 kb/s: 17563.28
  2. x265 info: frame P: 37744, Avg QP:17.73 kb/s: 10968.54
  3. x265 info: frame B: 144472, Avg QP:20.35 kb/s: 4303.93
  4. x265 info: Weighted P-Frames: Y:10.9% UV:9.0%
  5. x265 info: consecutive B-frames: 13.3% 6.7% 9.6% 28.6% 7.4% 19.7% 3.7% 3.0% 2.5% 1.5% 0.9% 1.6% 0.5% 0.4% 0.6%
  6. x265 info: encoded 184263 frames in 113952.01s (1.62 fps), 5816.39 kb/s, Avg QP:19.77
  7.  
  8. Формат : Matroska
  9. Версия формата : Version 4
  10. Размер файла : 6,35 Гбайт
  11. Продолжительность : 2 ч. 8 м.
  12. Общий поток : 7099 Кбит/сек
  13. Название фильма : Terminator: Dark Fate (2019) Encoded_by_M@kSIMus
  14. Дата кодирования : UTC 2020-01-21 13:14:56
  15. Программа кодирования : mkvmerge v40.0.0 ('Old Town Road + Pony') 64-bit
  16. Библиотека кодирования : libebml v1.3.9 + libmatroska v1.5.2
  17. Обложка : Yes
  18. Attachments : cover06.jpg
  19.  
  20. Видео
  21. Идентификатор : 1
  22. Формат : HEVC
  23. Формат/Информация : High Efficiency Video Coding
  24. Профиль формата : Main 10@L4.1@High
  25. Идентификатор кодека : V_MPEGH/ISO/HEVC
  26. Продолжительность : 2 ч. 8 м.
  27. Битрейт : 5817 Кбит/сек
  28. Ширина : 1920 пикселей
  29. Высота : 802 пикселя
  30. Соотношение сторон : 2,40:1
  31. Режим частоты кадров : Постоянный
  32. Частота кадров : 23,976 (24000/1001) кадра/сек
  33. Цветовое пространство : YUV
  34. Субдискретизация насыщенности : 4:2:0
  35. Битовая глубина : 10 бит
  36. Бит/(Пиксели*Кадры) : 0.158
  37. Размер потока : 5,20 Гбайт (82%)
  38. Библиотека кодирования : x265 3.2+5-354901970679:[Windows][clang 8.0.1][64 bit] 10bit
  39. Настройки программы : cpuid=1049583 / frame-threads=5 / numa-pools=4 / wpp / no-pmode / no-pme / no-psnr / no-ssim / log-level=3 / input-csp=1 / input-res=1920x802 / interlace=0 / total-frames=0 / level-idc=41 / high-tier=1 / uhd-bd=0 / ref=5 / allow-non-conformance / no-repeat-headers / annexb / no-aud / no-hrd / info / hash=0 / no-temporal-layers / open-gop / min-keyint=24 / keyint=240 / gop-lookahead=0 / bframes=14 / b-adapt=2 / b-pyramid / bframe-bias=0 / rc-lookahead=40 / lookahead-slices=5 / scenecut=40 / radl=0 / no-splice / no-intra-refresh / ctu=32 / min-cu-size=8 / no-rect / no-amp / max-tu-size=32 / tu-inter-depth=4 / tu-intra-depth=4 / limit-tu=1 / rdoq-level=1 / dynamic-rd=0.00 / no-ssim-rd / signhide / no-tskip / nr-intra=0 / nr-inter=0 / no-constrained-intra / no-strong-intra-smoothing / max-merge=5 / limit-refs=1 / no-limit-modes / me=3 / subme=7 / merange=57 / temporal-mvp / no-frame-dup / no-hme / weightp / no-weightb / no-analyze-src-pics / deblock=-3:-3 / no-sao / no-sao-non-deblock / rd=3 / selective-sao=0 / early-skip / no-rskip / no-fast-intra / no-tskip-fast / no-cu-lossless / b-intra / no-splitrd-skip / rdpenalty=0 / psy-rd=2.00 / psy-rdoq=1.00 / no-rd-refine / no-lossless / cbqpoffs=0 / crqpoffs=0 / rc=crf / crf=21.0 / qcomp=0.60 / qpstep=4 / stats-write=0 / stats-read=0 / vbv-maxrate=50000 / vbv-bufsize=50000 / vbv-init=0.9 / crf-max=0.0 / crf-min=0.0 / ipratio=1.40 / pbratio=1.30 / aq-mode=3 / aq-strength=1.00 / no-cutree / zone-count=0 / no-strict-cbr / qg-size=32 / no-rc-grain / qpmax=69 / qpmin=0 / no-const-vbv / sar=1 / overscan=0 / videoformat=5 / range=0 / colorprim=1 / transfer=1 / colormatrix=1 / chromaloc=0 / display-window=0 / cll=0,0 / min-luma=0 / max-luma=1023 / log2-max-poc-lsb=8 / vui-timing-info / vui-hrd-info / slices=1 / no-opt-qp-pps / no-opt-ref-list-length-pps / no-multi-pass-opt-rps / scenecut-bias=0.05 / no-opt-cu-delta-qp / no-aq-motion / no-hdr / no-hdr-opt / no-dhdr10-opt / no-idr-recovery-sei / analysis-reuse-level=5 / scale-factor=0 / refine-intra=0 / refine-inter=0 / refine-mv=1 / refine-ctu-distortion=0 / no-limit-sao / ctu-info=0 / no-lowpass-dct / refine-analysis-type=0 / copy-pic=1 / max-ausize-factor=1.0 / no-dynamic-refine / no-single-sei / no-hevc-aq / no-svt / no-field / qp-adaptation-range=1.00
  40. Язык : English
  41. Default : Да
  42. Forced : Нет
  43. Цветовой диапазон : Limited
  44. Основные цвета : BT.709
  45. Характеристики трансфера : BT.709
  46. Коэффициенты матрицы : BT.709
  47.  
  48. Аудио #1
  49. Идентификатор : 2
  50. Формат : AC-3
  51. Формат/Информация : Audio Coding 3
  52. Коммерческое название : Dolby Digital
  53. Идентификатор кодека : A_AC3
  54. Продолжительность : 2 ч. 8 м.
  55. Вид битрейта : Постоянный
  56. Битрейт : 640 Кбит/сек
  57. Каналы : 6 каналов
  58. ChannelLayout : L R C LFE Ls Rs
  59. Частота : 48,0 КГц
  60. Частота кадров : 31,250 кадров/сек (1536 SPF)
  61. Битовая глубина : 16 бит
  62. Метод сжатия : С потерями
  63. Размер потока : 586 Мбайт (9%)
  64. Заголовок : AVO (Есарев)
  65. Язык : Russian
  66. Default : Да
  67. Forced : Нет
  68.  
  69. Аудио #2
  70. Идентификатор : 3
  71. Формат : AC-3
  72. Формат/Информация : Audio Coding 3
  73. Коммерческое название : Dolby Digital
  74. Идентификатор кодека : A_AC3
  75. Продолжительность : 2 ч. 8 м.
  76. Вид битрейта : Постоянный
  77. Битрейт : 640 Кбит/сек
  78. Каналы : 6 каналов
  79. ChannelLayout : L R C LFE Ls Rs
  80. Частота : 48,0 КГц
  81. Частота кадров : 31,250 кадров/сек (1536 SPF)
  82. Битовая глубина : 16 бит
  83. Метод сжатия : С потерями
  84. Размер потока : 586 Мбайт (9%)
  85. Заголовок : Оригинал
  86. Язык : English
  87. Default : Нет
  88. Forced : Нет
  89.  
  90. Текст
  91. Идентификатор : 4
  92. Формат : UTF-8
  93. Идентификатор кодека : S_TEXT/UTF8
  94. Идентификатор кодека/Информация : UTF-8 Plain Text
  95. Продолжительность : 1 ч. 57 м.
  96. Битрейт : 39 бит/сек
  97. ElementCount : 1388
  98. Размер потока : 34,5 Кбайт (0%)
  99. Язык : English
  100. Default : Нет
  101. Forced : Нет
  102.  
  103. Меню
  104. 00:00:00.000 : :Chapter 01
  105. 00:04:19.843 : :Chapter 02
  106. 00:07:48.927 : :Chapter 03
  107. 00:11:47.916 : :Chapter 04
  108. 00:16:56.349 : :Chapter 05
  109. 00:22:10.663 : :Chapter 06
  110. 00:29:00.614 : :Chapter 07
  111. 00:33:25.754 : :Chapter 08
  112. 00:41:35.493 : :Chapter 09
  113. 00:47:02.695 : :Chapter 10
  114. 00:53:08.936 : :Chapter 11
  115. 00:57:56.807 : :Chapter 12
  116. 01:05:02.690 : :Chapter 13
  117. 01:13:07.967 : :Chapter 14
  118. 01:20:45.591 : :Chapter 15
  119. 01:27:29.744 : :Chapter 16
  120. 01:32:48.688 : :Chapter 17
  121. 01:41:45.850 : :Chapter 18
  122. 01:49:35.319 : :Chapter 19
  123. 01:57:58.613 : :Chapter 20
RAW Paste Data
We use cookies for various purposes including analytics. By continuing to use Pastebin, you agree to our use of cookies as described in the Cookies Policy. OK, I Understand
Top