daily pastebin goal
62%
SHARE
TWEET

Untitled

a guest Aug 13th, 2017 51 Never
Not a member of Pastebin yet? Sign Up, it unlocks many cool features!
  1. General
  2. Complete name                    : Disney Channel Original Movies\Wendy.Wu.Homecoming.Warrior.2006.HDTV.XviD-SLiME.avi
  3. Format                           : AVI
  4. Format/Info                      : Audio Video Interleave
  5. File size                        : 700 MiB
  6. Duration                         : 1h 30mn
  7. Overall bit rate                 : 1 080 Kbps
  8. Writing application              : VirtualDubMod 1.5.10.2 (build 2540/release)
  9. Writing library                  : VirtualDubMod build 2540/release
  10.  
  11. Video
  12. ID                               : 0
  13. Format                           : MPEG-4 Visual
  14. Format profile                   : Advanced Simple@L5
  15. Format settings, BVOP            : Yes
  16. Format settings, QPel            : No
  17. Format settings, GMC             : No warppoints
  18. Format settings, Matrix          : Default (H.263)
  19. Muxing mode                      : Packed bitstream
  20. Codec ID                         : XVID
  21. Codec ID/Hint                    : XviD
  22. Duration                         : 1h 30mn
  23. Bit rate                         : 945 Kbps
  24. Width                            : 624 pixels
  25. Height                           : 352 pixels
  26. Display aspect ratio             : 16:9
  27. Frame rate                       : 23.976 fps
  28. Color space                      : YUV
  29. Chroma subsampling               : 4:2:0
  30. Bit depth                        : 8 bits
  31. Scan type                        : Progressive
  32. Compression mode                 : Lossy
  33. Bits/(Pixel*Frame)               : 0.179
  34. Stream size                      : 613 MiB (87%)
  35. Writing library                  : XviD 1.2.1 (UTC 2008-12-04)
  36.  
  37. Audio
  38. ID                               : 1
  39. Format                           : MPEG Audio
  40. Format version                   : Version 1
  41. Format profile                   : Layer 3
  42. Mode                             : Joint stereo
  43. Codec ID                         : 55
  44. Codec ID/Hint                    : MP3
  45. Duration                         : 1h 30mn
  46. Bit rate mode                    : Variable
  47. Bit rate                         : 128 Kbps
  48. Channel(s)                       : 2 channels
  49. Sampling rate                    : 48.0 KHz
  50. Compression mode                 : Lossy
  51. Stream size                      : 79.2 MiB (11%)
  52. Alignment                        : Aligned on interleaves
  53. Interleave, duration             : 24 ms (0.58 video frame)
  54. Interleave, preload duration     : 518 ms
  55. Writing library                  : LAME3.97b
  56. Encoding settings                : -m j -V 4 -q 3 -lowpass 17 --abr 128
RAW Paste Data
Top