Interfilm

Untitled

Nov 9th, 2014
163
Never
Not a member of Pastebin yet? Sign Up, it unlocks many cool features!
  1. General
  2. House.of.Good.and.Evil.2013.Blu.Ray.1080p.CINEMANIA.mkv
  3. Format : Matroska
  4. Format version : Version 4 / Version 2
  5. File size : 8.89 GiB
  6. Duration : 1h 48mn
  7. Overall bit rate : 11.7 Mbps
  8. Movie name : Release Group CINEMANIA
  9. Encoded date : UTC 2014-11-07 01:36:44
  10. Writing application : mkvmerge v7.3.0 ('Nouages') 64bit built on Oct 22 2014 18:53:34
  11. Writing library : libebml v1.3.0 + libmatroska v1.4.1
  12.  
  13. Video
  14. ID : 1
  15. Format : AVC
  16. Format/Info : Advanced Video Codec
  17. Format profile : High@L4.1
  18. Format settings, CABAC : Yes
  19. Format settings, ReFrames : 5 frames
  20. Codec ID : V_MPEG4/ISO/AVC
  21. Duration : 1h 48mn
  22. Bit rate : 10.0 Mbps
  23. Width : 1 920 pixels
  24. Height : 800 pixels
  25. Display aspect ratio : 2.40:1
  26. Frame rate mode : Constant
  27. Frame rate : 23.976 fps
  28. Color space : YUV
  29. Chroma subsampling : 4:2:0
  30. Bit depth : 8 bits
  31. Scan type : Progressive
  32. Bits/(Pixel*Frame) : 0.273
  33. Stream size : 7.43 GiB (84%)
  34. Title : Release Group CINEMANIA
  35. Writing library : x264 core 140 r2377 1ca7bb9
  36. Encoding settings : cabac=1 / ref=5 / deblock=1:0:0 / analyse=0x3:0x113 / me=umh / subme=7 / psy=1 / psy_rd=1.00:0.00 / mixed_ref=1 / me_range=16 / chroma_me=1 / trellis=1 / 8x8dct=1 / cqm=0 / deadzone=21,11 / fast_pskip=0 / chroma_qp_offset=-2 / threads=12 / lookahead_threads=2 / sliced_threads=0 / nr=0 / decimate=1 / interlaced=0 / bluray_compat=0 / constrained_intra=0 / bframes=3 / b_pyramid=2 / b_adapt=2 / b_bias=0 / direct=3 / weightb=1 / open_gop=0 / weightp=2 / keyint=250 / keyint_min=23 / scenecut=40 / intra_refresh=0 / rc_lookahead=50 / rc=2pass / mbtree=1 / bitrate=10044 / ratetol=1.0 / qcomp=0.60 / qpmin=0 / qpmax=69 / qpstep=4 / cplxblur=20.0 / qblur=0.5 / ip_ratio=1.40 / aq=1:1.00
  37. Default : Yes
  38. Forced : No
  39.  
  40. Audio #1
  41. ID : 2
  42. Format : AC-3
  43. Format/Info : Audio Coding 3
  44. Mode extension : CM (complete main)
  45. Format settings, Endianness : Big
  46. Codec ID : A_AC3
  47. Duration : 1h 48mn
  48. Bit rate mode : Constant
  49. Bit rate : 192 Kbps
  50. Channel(s) : 2 channels
  51. Channel positions : Front: L R
  52. Sampling rate : 48.0 KHz
  53. Bit depth : 16 bits
  54. Compression mode : Lossy
  55. Stream size : 149 MiB (2%)
  56. Title : Официальная озвучка
  57. Language : Russian
  58. Default : Yes
  59. Forced : Yes
  60.  
  61. Audio #2
  62. ID : 3
  63. Format : DTS
  64. Format/Info : Digital Theater Systems
  65. Mode : 16
  66. Format settings, Endianness : Big
  67. Codec ID : A_DTS
  68. Duration : 1h 48mn
  69. Bit rate mode : Constant
  70. Bit rate : 1 509 Kbps
  71. Channel(s) : 6 channels
  72. Channel positions : Front: L C R, Side: L R, LFE
  73. Sampling rate : 48.0 KHz
  74. Bit depth : 24 bits
  75. Compression mode : Lossy
  76. Stream size : 1.14 GiB (13%)
  77. Language : English
  78. Default : No
  79. Forced : No
  80.  
  81. Menu
  82. 00:00:00.000 : en:00:00:00.000
  83. 00:09:59.974 : en:00:09:59.974
  84. 00:19:59.990 : en:00:19:59.990
  85. 00:29:59.965 : en:00:29:59.965
  86. 00:39:59.981 : en:00:39:59.981
  87. 00:49:59.997 : en:00:49:59.997
  88. 00:59:59.971 : en:00:59:59.971
  89. 01:09:59.987 : en:01:09:59.987
  90. 01:19:59.962 : en:01:19:59.962
RAW Paste Data