Henry_Kr

BnHA-2018

Sep 8th, 2019
182
Never
Not a member of Pastebin yet? Sign Up, it unlocks many cool features!
  1. Video
  2. ID : 1
  3. Format : AVC
  4. Format/Info : Advanced Video Codec
  5. Format profile : High@L4.1
  6. Format settings : CABAC / 4 Ref Frames
  7. Format settings, CABAC : Yes
  8. Format settings, Reference : 4 frames
  9. Muxing mode : Header stripping
  10. Codec ID : V_MPEG4/ISO/AVC
  11. Duration : 1 h 35 min
  12. Bit rate : 5 624 kb/s
  13. Width : 1 920 pixels
  14. Height : 1 080 pixels
  15. Display aspect ratio : 16:9
  16. Frame rate mode : Constant
  17. Frame rate : 23.976 (24000/1001) FPS
  18. Color space : YUV
  19. Chroma subsampling : 4:2:0
  20. Bit depth : 8 bits
  21. Scan type : Progressive
  22. Bits/(Pixel*Frame) : 0.113
  23. Stream size : 3.68 GiB (88%)
  24. Title : Boku.No.Hero.Academia.The.Movie.Futari.no.Hero.2018.1080p.Bluray.[CartoonNOW]
  25. Writing library : x264 core 157 r2969 d4099dd
  26. Language : Japanese
  27. Default : Yes
  28. Forced : No
  29.  
  30. Audio #1
  31. ID : 2
  32. Format : AC-3
  33. Format/Info : Audio Coding 3
  34. Commercial name : Dolby Digital
  35. Muxing mode : Header stripping
  36. Codec ID : A_AC3
  37. Duration : 1 h 35 min
  38. Bit rate mode : Constant
  39. Bit rate : 192 kb/s
  40. Channel(s) : 2 channels
  41. Channel layout : L R
  42. Sampling rate : 44.1 kHz
  43. Frame rate : 28.711 FPS (1536 SPF)
  44. Bit depth : 16 bits
  45. Compression mode : Lossy
  46. Delay relative to video : 3 ms
  47. Stream size : 132 MiB (3%)
  48. Title : AC3 2.0
  49. Language : Portuguese
  50. Service kind : Complete Main
  51. Default : Yes
  52. Forced : No
  53.  
  54. Audio #2
  55. ID : 3
  56. Format : AC-3
  57. Format/Info : Audio Coding 3
  58. Commercial name : Dolby Digital
  59. Muxing mode : Header stripping
  60. Codec ID : A_AC3
  61. Duration : 1 h 35 min
  62. Bit rate mode : Constant
  63. Bit rate : 448 kb/s
  64. Channel(s) : 6 channels
  65. Channel layout : L R C LFE Ls Rs
  66. Sampling rate : 48.0 kHz
  67. Frame rate : 31.250 FPS (1536 SPF)
  68. Bit depth : 16 bits
  69. Compression mode : Lossy
  70. Stream size : 307 MiB (7%)
  71. Title : AC3 5.1
  72. Language : Japanese
  73. Service kind : Complete Main
  74. Default : No
  75. Forced : No
  76.  
  77. Text #1
  78. ID : 4
  79. Format : ASS
  80. Codec ID : S_TEXT/ASS
  81. Codec ID/Info : Advanced Sub Station Alpha
  82. Compression mode : Lossless
  83. Title : Forçada
  84. Language : Portuguese
  85. Default : No
  86. Forced : Yes
  87.  
  88. Text #2
  89. ID : 5
  90. Format : ASS
  91. Codec ID : S_TEXT/ASS
  92. Codec ID/Info : Advanced Sub Station Alpha
  93. Compression mode : Lossless
  94. Title : Completa
  95. Language : Portuguese
  96. Default : No
  97. Forced : No
  98.  
  99. Menu
  100. 00:00:00.000 : en:Chapter 01
  101. 00:10:41.474 : en:Chapter 02
  102. 00:26:59.326 : en:Chapter 03
  103. 00:36:24.265 : en:Chapter 04
  104. 00:47:47.531 : en:Chapter 05
  105. 00:57:37.954 : en:Chapter 06
  106. 01:05:46.734 : en:Chapter 07
  107. 01:15:12.299 : en:Chapter 08
  108. 01:30:54.449 : en:Chapter 09
RAW Paste Data