TolstiyMob

Katanagatari Vol.6 Soto Tsuchi

Oct 22nd, 2011
85
Never
Not a member of Pastebin yet? Sign Up, it unlocks many cool features!
  1. Disc Title: BDROM
  2. Disc Size: 16 919 678 277 bytes
  3. Protection: AACS
  4. BD-Java: No
  5. BDInfo: 0.5.6
  6.  
  7. Notes:
  8.  
  9. BDINFO HOME:
  10. Cinema Squid
  11. http://www.cinemasquid.com/blu-ray/tools/bdinfo
  12.  
  13. INCLUDES FORUMS REPORT FOR:
  14. AVS Forum Blu-ray Audio and Video Specifications Thread
  15. http://www.avsforum.com/avs-vb/showthread.php?t=1155731
  16.  
  17.  
  18. ********************
  19. PLAYLIST: 00000.MPLS
  20. ********************
  21.  
  22. <--- BEGIN FORUMS PASTE --->
  23. [code]
  24. Total Video
  25. Title Codec Length Movie Size Disc Size Bitrate Bitrate Main Audio Track Secondary Audio Track
  26. ----- ------ ------- -------------- -------------- ------- ------- ------------------ ---------------------
  27. 00000.MPLS AVC 0:49:50 15 765 762 048 16 919 678 277 42,18 38,00 LPCM 2.0 2304Kbps (48kHz/24-bit)
  28. [/code]
  29.  
  30. [code]
  31.  
  32. DISC INFO:
  33.  
  34. Disc Title: BDROM
  35. Disc Size: 16 919 678 277 bytes
  36. Protection: AACS
  37. BD-Java: No
  38. BDInfo: 0.5.6
  39.  
  40. PLAYLIST REPORT:
  41.  
  42. Name: 00000.MPLS
  43. Length: 0:49:50 (h:m:s)
  44. Size: 15 765 762 048 bytes
  45. Total Bitrate: 42,18 Mbps
  46.  
  47. VIDEO:
  48.  
  49. Codec Bitrate Description
  50. ----- ------- -----------
  51. MPEG-4 AVC Video 38000 kbps 1080p / 23,976 fps / 16:9 / High Profile 4.1
  52.  
  53. AUDIO:
  54.  
  55. Codec Language Bitrate Description
  56. ----- -------- ------- -----------
  57. LPCM Audio Japanese 2304 kbps 2.0 / 48 kHz / 2304 kbps / 24-bit
  58.  
  59. FILES:
  60.  
  61. Name Time In Length Size Total Bitrate
  62. ---- ------- ------ ---- -------------
  63. 00000.M2TS 0:00:00.000 0:49:50.028 15 765 762 048 42 182
  64.  
  65. CHAPTERS:
  66.  
  67. Number Time In Length Avg Video Rate Max 1-Sec Rate Max 1-Sec Time Max 5-Sec Rate Max 5-Sec Time Max 10Sec Rate Max 10Sec Time Avg Frame Size Max Frame Size Max Frame Time
  68. ------ ------- ------ -------------- -------------- -------------- -------------- -------------- -------------- -------------- -------------- -------------- --------------
  69. 1 0:00:00.000 0:02:51.045 37 857 kbps 47 191 kbps 00:00:09.467 40 233 kbps 00:00:09.718 40 090 kbps 00:00:09.592 197 320 bytes 641 079 bytes 00:00:13.596
  70. 2 0:02:51.045 0:01:29.964 38 466 kbps 42 723 kbps 00:03:35.423 40 515 kbps 00:02:55.258 39 933 kbps 00:03:32.795 200 543 bytes 605 406 bytes 00:04:20.385
  71. 3 0:04:21.010 0:09:07.046 38 514 kbps 45 020 kbps 00:09:34.031 40 590 kbps 00:09:30.027 40 080 kbps 00:09:25.022 200 797 bytes 640 653 bytes 00:04:29.602
  72. 4 0:13:28.057 0:15:21.086 38 282 kbps 43 882 kbps 00:26:31.423 40 292 kbps 00:26:54.946 39 896 kbps 00:24:20.625 199 582 bytes 621 790 bytes 00:26:59.951
  73. 5 0:28:49.144 0:06:15.041 38 467 kbps 43 494 kbps 00:28:54.816 40 419 kbps 00:28:53.773 40 083 kbps 00:32:13.932 200 549 bytes 638 805 bytes 00:28:58.778
  74. 6 0:35:04.185 0:12:37.006 37 379 kbps 42 979 kbps 00:40:56.787 40 309 kbps 00:39:25.029 39 965 kbps 00:38:03.447 194 876 bytes 639 951 bytes 00:45:15.254
  75. 7 0:47:41.191 0:01:29.964 39 730 kbps 42 046 kbps 00:49:09.196 40 212 kbps 00:49:05.233 39 994 kbps 00:49:00.187 207 135 bytes 602 440 bytes 00:48:06.216
  76. 8 0:49:11.156 0:00:37.036 28 439 kbps 40 788 kbps 00:49:23.585 39 987 kbps 00:49:28.382 39 893 kbps 00:49:14.660 148 268 bytes 291 849 bytes 00:49:15.494
  77. 9 0:49:48.193 0:00:01.835 2 001 kbps 3 644 kbps 00:49:48.986 0 kbps 00:00:00.000 0 kbps 00:00:00.000 10 673 bytes 208 334 bytes 00:49:49.987
  78.  
  79. STREAM DIAGNOSTICS:
  80.  
  81. File PID Type Codec Language Seconds Bitrate Bytes Packets
  82. ---- --- ---- ----- -------- -------------- -------------- ------------- -----
  83. 00000.M2TS 4113 (0x1011) 0x1B AVC 2989,862 38 002 14 202 452 609 77 229 123
  84. 00000.M2TS 4352 (0x1100) 0x80 LPCM jpn (Japanese) 2989,862 2 311 863 520 664 4 784 048
  85.  
  86. [/code]
  87. <---- END FORUMS PASTE ---->
  88.  
  89. QUICK SUMMARY:
  90.  
  91. Disc Title: BDROM
  92. Disc Size: 16 919 678 277 bytes
  93. Protection: AACS
  94. BD-Java: No
  95. Playlist: 00000.MPLS
  96. Size: 15 765 762 048 bytes
  97. Length: 0:49:50
  98. Total Bitrate: 42,18 Mbps
  99. Video: MPEG-4 AVC Video / 38000 kbps / 1080p / 23,976 fps / 16:9 / High Profile 4.1
  100. Audio: Japanese / LPCM Audio / 2.0 / 48 kHz / 2304 kbps / 24-bit
  101.  
  102.  
  103. ********************
  104. PLAYLIST: 00002.MPLS
  105. ********************
  106.  
  107. <--- BEGIN FORUMS PASTE --->
  108. [code]
  109. Total Video
  110. Title Codec Length Movie Size Disc Size Bitrate Bitrate Main Audio Track Secondary Audio Track
  111. ----- ------ ------- -------------- -------------- ------- ------- ------------------ ---------------------
  112. 00002.MPLS AVC 0:00:38 66 680 832 16 919 678 277 14,02 11,60 LPCM 2.0 1536Kbps (48kHz/16-bit)
  113. [/code]
  114.  
  115. [code]
  116.  
  117. DISC INFO:
  118.  
  119. Disc Title: BDROM
  120. Disc Size: 16 919 678 277 bytes
  121. Protection: AACS
  122. BD-Java: No
  123. BDInfo: 0.5.6
  124.  
  125. PLAYLIST REPORT:
  126.  
  127. Name: 00002.MPLS
  128. Length: 0:00:38 (h:m:s)
  129. Size: 66 680 832 bytes
  130. Total Bitrate: 14,02 Mbps
  131.  
  132. VIDEO:
  133.  
  134. Codec Bitrate Description
  135. ----- ------- -----------
  136. MPEG-4 AVC Video 11601 kbps 1080i / 29,970 fps / 16:9 / High Profile 4.1
  137.  
  138. AUDIO:
  139.  
  140. Codec Language Bitrate Description
  141. ----- -------- ------- -----------
  142. LPCM Audio Japanese 1536 kbps 2.0 / 48 kHz / 1536 kbps / 16-bit
  143.  
  144. FILES:
  145.  
  146. Name Time In Length Size Total Bitrate
  147. ---- ------- ------ ---- -------------
  148. 00003.M2TS 0:00:00.000 0:00:22.021 23 218 176 8 435
  149. 00002.M2TS 0:00:22.021 0:00:16.015 43 462 656 21 710
  150.  
  151. CHAPTERS:
  152.  
  153. Number Time In Length Avg Video Rate Max 1-Sec Rate Max 1-Sec Time Max 5-Sec Rate Max 5-Sec Time Max 10Sec Rate Max 10Sec Time Avg Frame Size Max Frame Size Max Frame Time
  154. ------ ------- ------ -------------- -------------- -------------- -------------- -------------- -------------- -------------- -------------- -------------- --------------
  155. 1 0:00:00.000 0:00:38.037 11 601 kbps 46 121 kbps 00:00:31.564 32 526 kbps 00:00:28.495 27 952 kbps 00:00:23.523 48 385 bytes 489 494 bytes 00:00:03.002
  156.  
  157. STREAM DIAGNOSTICS:
  158.  
  159. File PID Type Codec Language Seconds Bitrate Bytes Packets
  160. ---- --- ---- ----- -------- -------------- -------------- ------------- -----
  161. 00003.M2TS 4113 (0x1011) 0x1B AVC 21,889 6 281 17 184 086 93 744
  162. 00003.M2TS 4352 (0x1100) 0x80 LPCM jpn (Japanese) 21,889 1 552 4 246 420 26 430
  163. 00002.M2TS 4113 (0x1011) 0x1B AVC 15,883 19 128 37 974 761 206 633
  164. 00002.M2TS 4352 (0x1100) 0x80 LPCM jpn (Japanese) 15,883 1 555 3 087 692 19 218
  165.  
  166. [/code]
  167. <---- END FORUMS PASTE ---->
  168.  
  169. QUICK SUMMARY:
  170.  
  171. Disc Title: BDROM
  172. Disc Size: 16 919 678 277 bytes
  173. Protection: AACS
  174. BD-Java: No
  175. Playlist: 00002.MPLS
  176. Size: 66 680 832 bytes
  177. Length: 0:00:38
  178. Total Bitrate: 14,02 Mbps
  179. Video: MPEG-4 AVC Video / 11601 kbps / 1080i / 29,970 fps / 16:9 / High Profile 4.1
  180. Audio: Japanese / LPCM Audio / 2.0 / 48 kHz / 1536 kbps / 16-bit
  181.  
  182.  
  183.  
RAW Paste Data