Guest User

The.Hills.Have.Eyes.2006.1080p.BluRay.x264-CiNEFiLE

a guest
May 16th, 2019
56
Never
Not a member of Pastebin yet? Sign Up, it unlocks many cool features!
  1. General
  2. Unique ID                                : 180197330143231709638525145874688767577 (0x8790BE4F9A6A905182A36C7B1F6DF659)
  3. Complete name                            : The.Hills.Have.Eyes.2006.1080p.BluRay.x264-CiNEFiLE.mkv
  4. Format                                   : Matroska
  5. Format version                           : Version 1
  6. File size                                : 7.95 GiB
  7. Duration                                 : 1 h 48 min
  8. Overall bit rate                         : 10.5 Mb/s
  9. Encoded date                             : UTC 2008-06-22 15:10:30
  10. Writing application                      : mkvmerge v2.1.0 ('Another Place To Fall') built on Aug 19 2007 13:40:07
  11. Writing library                          : libebml v0.7.7 + libmatroska v0.8.1
  12.  
  13. Video
  14. ID                                       : 1
  15. Format                                   : AVC
  16. Format/Info                              : Advanced Video Codec
  17. Format profile                           : High@L5.1
  18. Format settings                          : CABAC / 5 Ref Frames
  19. Format settings, CABAC                   : Yes
  20. Format settings, Reference frames        : 5 frames
  21. Codec ID                                 : V_MPEG4/ISO/AVC
  22. Duration                                 : 1 h 48 min
  23. Bit rate                                 : 9 848 kb/s
  24. Width                                    : 1 920 pixels
  25. Height                                   : 816 pixels
  26. Display aspect ratio                     : 2.35:1
  27. Frame rate mode                          : Constant
  28. Frame rate                               : 23.976 FPS
  29. Color space                              : YUV
  30. Chroma subsampling                       : 4:2:0
  31. Bit depth                                : 8 bits
  32. Scan type                                : Progressive
  33. Bits/(Pixel*Frame)                       : 0.262
  34. Stream size                              : 7.30 GiB (92%)
  35. Title                                    : The.Hills.Have.Eyes
  36. Writing library                          : x264 core 60 r886M 1075536
  37. Encoding settings                        : cabac=1 / ref=5 / deblock=1:0:0 / analyse=0x3:0x133 / me=umh / subme=7 / rdcmp=psy / brdo=1 / mixed_ref=1 / me_range=12 / chroma_me=1 / trellis=1 / 8x8dct=1 / cqm=0 / deadzone=21,11 / chroma_qp_offset=0 / threads=6 / nr=0 / decimate=1 / mbaff=0 / bframes=3 / b_pyramid=1 / b_adapt=1 / b_bias=0 / direct=3 / wpredb=1 / bime=1 / keyint=240 / keyint_min=24 / scenecut=40(pre) / rc=2pass / bitrate=9848 / ratetol=1.0 / rceq='blurCplx^(1-qComp)' / qcomp=1.00 / qpmin=10 / qpmax=51 / qpstep=4 / cplxblur=20.0 / qblur=0.5 / ip_ratio=1.40 / pb_ratio=1.30 / aq=2:1.00
  38. Language                                 : English
  39. Default                                  : Yes
  40. Forced                                   : No
  41.  
  42. Audio
  43. ID                                       : 2
  44. Format                                   : AC-3
  45. Format/Info                              : Audio Coding 3
  46. Commercial name                          : Dolby Digital
  47. Codec ID                                 : A_AC3
  48. Duration                                 : 1 h 48 min
  49. Bit rate mode                            : Constant
  50. Bit rate                                 : 640 kb/s
  51. Channel(s)                               : 6 channels
  52. Channel layout                           : L R C LFE Ls Rs
  53. Sampling rate                            : 48.0 kHz
  54. Frame rate                               : 31.250 FPS (1536 SPF)
  55. Bit depth                                : 16 bits
  56. Compression mode                         : Lossy
  57. Stream size                              : 496 MiB (6%)
  58. Title                                    : English
  59. Language                                 : English
  60. Service kind                             : Complete Main
  61. Default                                  : Yes
  62. Forced                                   : No
  63.  
  64. Menu
  65. 00:00:00.000                             : en:00:02:26.729
  66. 00:04:42.740                             : en:00:08:51.906
  67. 00:16:46.088                             : en:00:19:36.008
  68. 00:25:38.036                             : en:00:28:26.287
  69. 00:34:26.856                             : en:00:37:44.845
  70. 00:43:49.585                             : en:00:49:34.721
  71. 01:00:03.266                             : en:01:02:46.387
  72. 01:07:57.323                             : en:01:13:33.659
  73. 01:16:48.687                             : en:01:20:29.032
  74. 01:24:36.029                             : en:01:28:07.865
  75. 01:32:57.321                             : en:01:37:40.145
  76. 01:42:06.912                             : en:01:44:19.461
RAW Paste Data