Advertisement
johnowenemmet

Пространство / Экспансия / The Expanse (2019)

Feb 10th, 2024
34
0
Never
Not a member of Pastebin yet? Sign Up, it unlocks many cool features!
text 10.35 KB | None | 0 0
  1. x265 [info]: frame I: 269, Avg QP:16.27 kb/s: 14915.16
  2. x265 [info]: frame P: 9016, Avg QP:17.63 kb/s: 8774.05
  3. x265 [info]: frame B: 54565, Avg QP:19.96 kb/s: 3161.41
  4. x265 [info]: Weighted P-Frames: Y:5.5% UV:4.6%
  5. x265 [info]: Weighted B-Frames: Y:6.3% UV:4.8%
  6. x265 [info]: consecutive B-frames: 1.7% 1.7% 3.9% 13.9% 9.7% 26.9% 7.6% 11.1% 5.4% 4.6% 4.0% 4.7% 1.7% 1.0% 1.2% 0.9%
  7. x265 [info]: encoded 63850 frames in 32209.70s (1.98 fps), 4003.47 kb/s, Avg QP:19.61
  8.  
  9. Общее
  10. Уникальный идентификатор : 130849844286706381476038693475023827125 (0x6270C369CAEA12BFA5EB4B0075FBB0B5)
  11. Полное имя : \\.\The.Expanse.S04E07.A.Shot.In.The.Dark.mkv
  12. Формат : Matroska
  13. Версия формата : Version 4
  14. Размер файла : 1,76 Гбайт
  15. Продолжительность : 44 м. 23 с.
  16. Общий поток : 5 672 Кбит/сек
  17. Частота кадров : 23,976 кадра/сек
  18. Название фильма : The.Expanse.S04E07.A.Shot.In.The.Dark / Выстрел в темноте
  19. Трек/Положение : 4
  20. Кодирование произвёл : OldGamer
  21. Тип содержимого : TV Show
  22. Описание : Наоми и Алекс работают над тем, чтобы Барбапиккола оставалась на орбите во время отключения электроэнергии. Авасарала сталкивается с трудным решением. Холден и Элви мчатся, чтобы найти лекарство от болезни, распространяющейся на Илусе.
  23. Дата выпуска : 2019-12-13
  24. Дата записи : 2019-12-13
  25. Программа кодирования : mkvmerge v82.0 ('I'm The President') 64-bit
  26. Библиотека кодирования : libebml v1.4.5 + libmatroska v1.7.1 / xvid5psp
  27. Обложка : Yes
  28. Attachments : cover.jpg
  29. ACTOR : Steven Strait, Dominique Tipper, Cas Anvar, Wes Chatham, Shohreh Aghdashloo, Frankie Adams, Cara Gee, Keon Alexander, Benz Antoine, Burn Gorman, Rosa Gilmore, Lyndie Greenwood, Jess Salgueiro, Keon Alexander, Benz Antoine, Burn Gorman, Rosa Gilmore, ...
  30. ARTIST : Steven Strait, Dominique Tipper, Cas Anvar, Wes Chatham, Shohreh Aghdashloo, Frankie Adams, Cara Gee, Keon Alexander, Benz Antoine, Burn Gorman, Rosa Gilmore, Lyndie Greenwood, Jess Salgueiro, Keon Alexander, Benz Antoine, Burn Gorman, Rosa Gilmore, ...
  31. DIRECTOR : Sarah Harding
  32. EPISODE.PART_NUM : 7
  33. GENRE : драма, детектив, НФ и Фэнтези
  34. LAW_RATING : TV-14
  35. PRODUCER : Laura Marks
  36. RATING : TV-14
  37. SCREENPLAY_BY : Dan Nowak
  38. SEASON.PART_NUM : 4
  39. SUMMARY : Наоми и Алекс работают над тем, чтобы Барбапиккола оставалась на орбите во время отключения электроэнергии. Авасарала сталкивается с трудным решением. Холден и Элви мчатся, чтобы найти лекарство от болезни, распространяющейся на Илусе.
  40. SYNOPSIS : Наоми и Алекс работают над тем, чтобы Барбапиккола оставалась на орбите во время отключения электроэнергии. Авасарала сталкивается с трудным решением. Холден и Элви мчатся, чтобы найти лекарство от болезни, распространяющейся на Илусе.
  41. WRITTEN_BY : Dan Nowak
  42.  
  43. Видео
  44. Идентификатор : 1
  45. Формат : HEVC
  46. Формат/Информация : High Efficiency Video Coding
  47. Профиль формата : Main 10@L4.1@High
  48. Идентификатор кодека : V_MPEGH/ISO/HEVC
  49. Продолжительность : 44 м. 23 с.
  50. Битрейт : 4 004 Кбит/сек
  51. Ширина : 1 920 пикселей
  52. Высота : 1 080 пикселей
  53. Соотношение сторон : 16:9
  54. Режим частоты кадров : Постоянный
  55. Частота кадров : 23,976 (24000/1001) кадра/сек
  56. Цветовое пространство : YUV
  57. Субдискретизация насыщенности : 4:2:0
  58. Битовая глубина : 10 бит
  59. Бит/(Пиксели*Кадры) : 0.081
  60. Размер потока : 1,24 Гбайт (71%)
  61. Заголовок : The Expanse S04E07 / Rip by OldGamer
  62. Библиотека кодирования : x265 3.4+12-g9103319fc:[Windows][GCC 10.2.0][64 bit] 10bit
  63. Настройки программы : cpuid=1111039 / frame-threads=3 / numa-pools=8 / wpp / no-pmode / no-pme / no-psnr / no-ssim / log-level=2 / input-csp=1 / input-res=1920x1080 / interlace=0 / total-frames=63850 / level-idc=41 / high-tier=1 / uhd-bd=0 / ref=5 / no-allow-non-conformance / no-repeat-headers / annexb / no-aud / no-hrd / info / hash=0 / no-temporal-layers / open-gop / min-keyint=23 / keyint=240 / gop-lookahead=0 / bframes=15 / b-adapt=2 / b-pyramid / bframe-bias=0 / rc-lookahead=40 / lookahead-slices=0 / scenecut=40 / hist-scenecut=0 / radl=0 / no-splice / no-intra-refresh / ctu=32 / min-cu-size=8 / rect / amp / max-tu-size=32 / tu-inter-depth=4 / tu-intra-depth=4 / limit-tu=1 / rdoq-level=2 / dynamic-rd=0.00 / no-ssim-rd / signhide / no-tskip / nr-intra=0 / nr-inter=0 / no-constrained-intra / no-strong-intra-smoothing / max-merge=5 / limit-refs=3 / no-limit-modes / me=3 / subme=7 / merange=57 / temporal-mvp / no-frame-dup / no-hme / weightp / weightb / no-analyze-src-pics / deblock=-3:-3 / no-sao / no-sao-non-deblock / rd=6 / selective-sao=0 / no-early-skip / rskip / no-fast-intra / no-tskip-fast / no-cu-lossless / b-intra / no-splitrd-skip / rdpenalty=0 / psy-rd=1.00 / psy-rdoq=1.00 / no-rd-refine / no-lossless / cbqpoffs=0 / crqpoffs=0 / rc=crf / crf=19.5 / qcomp=0.70 / qpstep=4 / stats-write=0 / stats-read=0 / vbv-maxrate=50000 / vbv-bufsize=50000 / vbv-init=0.9 / crf-max=0.0 / crf-min=0.0 / ipratio=1.40 / pbratio=1.30 / aq-mode=4 / aq-strength=0.80 / no-cutree / zone-count=0 / no-strict-cbr / qg-size=32 / no-rc-grain / qpmax=69 / qpmin=0 / no-const-vbv / sar=1 / overscan=0 / videoformat=5 / range=0 / colorprim=2 / transfer=2 / colormatrix=2 / chromaloc=0 / display-window=0 / cll=0,0 / min-luma=0 / max-luma=1023 / log2-max-poc-lsb=8 / vui-timing-info / vui-hrd-info / slices=1 / no-opt-qp-pps / no-opt-ref-list-length-pps / no-multi-pass-opt-rps / scenecut-bias=0.00 / hist-threshold=0.01 / no-opt-cu-delta-qp / no-aq-motion / no-hdr10 / no-hdr10-opt / no-dhdr10-opt / no-idr-recovery-sei / analysis-reuse-level=0 / analysis-save-reuse-level=0 / analysis-load-reuse-level=0 / scale-factor=0 / refine-intra=0 / refine-inter=0 / refine-mv=1 / refine-ctu-distortion=0 / no-limit-sao / ctu-info=0 / no-lowpass-dct / refine-analysis-type=0 / copy-pic=1 / max-ausize-factor=1.0 / no-dynamic-refine / no-single-sei / no-hevc-aq / no-svt / no-field / qp-adaptation-range=1.00 / no-scenecut-aware-qpconformance-window-offsets / right=0 / bottom=0 / decoder-max-rate=0
  64. Язык : English
  65. Default : Да
  66. Forced : Нет
  67.  
  68. Аудио #1
  69. Идентификатор : 2
  70. Формат : AC-3
  71. Формат/Информация : Audio Coding 3
  72. Коммерческое название : Dolby Digital
  73. Идентификатор кодека : A_AC3
  74. Продолжительность : 44 м. 22 с.
  75. Вид битрейта : Постоянный
  76. Битрейт : 640 Кбит/сек
  77. Каналы : 6 каналов
  78. Channel layout : L R C LFE Ls Rs
  79. Частота : 48,0 КГц
  80. Частота кадров : 31,250 кадров/сек (1536 SPF)
  81. Метод сжатия : С потерями
  82. Размер потока : 203 Мбайт (11%)
  83. Заголовок : MVO (LostFilm)
  84. Язык : Russian
  85. Service kind : Complete Main
  86. Default : Да
  87. Forced : Нет
  88.  
  89. Аудио #2
  90. Идентификатор : 3
  91. Формат : AC-3
  92. Формат/Информация : Audio Coding 3
  93. Коммерческое название : Dolby Digital
  94. Идентификатор кодека : A_AC3
  95. Продолжительность : 44 м. 22 с.
  96. Вид битрейта : Постоянный
  97. Битрейт : 384 Кбит/сек
  98. Каналы : 6 каналов
  99. Channel layout : L R C LFE Ls Rs
  100. Частота : 48,0 КГц
  101. Частота кадров : 31,250 кадров/сек (1536 SPF)
  102. Метод сжатия : С потерями
  103. Размер потока : 122 Мбайт (7%)
  104. Заголовок : MVO (AlexFilm)
  105. Язык : Russian
  106. Service kind : Complete Main
  107. Default : Нет
  108. Forced : Да
  109.  
  110. Аудио #3
  111. Идентификатор : 4
  112. Формат : AC-3
  113. Формат/Информация : Audio Coding 3
  114. Коммерческое название : Dolby Digital
  115. Идентификатор кодека : A_AC3
  116. Продолжительность : 44 м. 23 с.
  117. Вид битрейта : Постоянный
  118. Битрейт : 640 Кбит/сек
  119. Каналы : 6 каналов
  120. Channel layout : L R C LFE Ls Rs
  121. Частота : 48,0 КГц
  122. Частота кадров : 31,250 кадров/сек (1536 SPF)
  123. Метод сжатия : С потерями
  124. Размер потока : 203 Мбайт (11%)
  125. Заголовок : Original
  126. Язык : English
  127. Service kind : Complete Main
  128. Default : Нет
  129. Forced : Нет
  130.  
  131. Текст #1
  132. Идентификатор : 5
  133. Формат : UTF-8
  134. Идентификатор кодека : S_TEXT/UTF8
  135. Идентификатор кодека/Информация : UTF-8 Plain Text
  136. Продолжительность : 39 м. 35 с.
  137. Битрейт : 145 бит/сек
  138. Частота кадров : 0,264 кадр/сек
  139. Count of elements : 628
  140. Размер потока : 42,1 Кбайт (0%)
  141. Язык : Russian
  142. Default : Нет
  143. Forced : Нет
  144.  
  145. Текст #2
  146. Идентификатор : 6
  147. Формат : UTF-8
  148. Идентификатор кодека : S_TEXT/UTF8
  149. Идентификатор кодека/Информация : UTF-8 Plain Text
  150. Продолжительность : 44 м. 19 с.
  151. Битрейт : 84 бит/сек
  152. Частота кадров : 0,299 кадр/сек
  153. Count of elements : 794
  154. Размер потока : 27,4 Кбайт (0%)
  155. Заголовок : SDH
  156. Язык : English
  157. Default : Нет
  158. Forced : Нет
  159.  
  160. Меню
  161. 00:00:00.000 : en:Chapter 01
  162. 00:01:09.278 : en:Chapter 02
  163. 00:07:56.017 : en:Chapter 03
  164. 00:20:35.985 : en:Chapter 04
  165. 00:33:23.668 : en:Chapter 05
  166. 00:42:08.735 : en:Chapter 06
Advertisement
Add Comment
Please, Sign In to add comment
Advertisement