Guest User

Untitled

a guest
Nov 4th, 2017
380
Never
Not a member of Pastebin yet? Sign Up, it unlocks many cool features!
  1. General
  2. Complete name : /X.m4v
  3. Format : MPEG-4
  4. Format profile : Base Media / Version 2
  5. Codec ID : mp42 (isom/iso2/avc1/mp41)
  6. File size : 230 MiB
  7. Duration : 48 min 11 s
  8. Overall bit rate mode : Variable
  9. Overall bit rate : 666 kb/s
  10. Movie name : X
  11. Encoded date : UTC 2017-10-16 19:41:51
  12. Tagged date : UTC 2017-10-16 19:41:51
  13. Writing application : HandBrake 20171014111631-400c306-master 2017101501
  14.  
  15. Video
  16. ID : 1
  17. Format : AVC
  18. Format/Info : Advanced Video Codec
  19. Format profile : Main@L3.1
  20. Format settings, CABAC : Yes
  21. Format settings, ReFrames : 4 frames
  22. Codec ID : avc1
  23. Codec ID/Info : Advanced Video Coding
  24. Duration : 48 min 11 s
  25. Bit rate : 499 kb/s
  26. Width : 704 pixels
  27. Height : 480 pixels
  28. Display aspect ratio : 4:3
  29. Frame rate mode : Variable
  30. Frame rate : 24.240 FPS
  31. Minimum frame rate : 19.978 FPS
  32. Maximum frame rate : 30.000 FPS
  33. Color space : YUV
  34. Chroma subsampling : 4:2:0
  35. Bit depth : 8 bits
  36. Scan type : Progressive
  37. Bits/(Pixel*Frame) : 0.061
  38. Stream size : 172 MiB (75%)
  39. Writing library : x264 core 150
  40. Encoding settings : cabac=1 / ref=1 / deblock=1:0:0 / analyse=0x1:0x111 / me=hex / subme=2 / psy=1 / psy_rd=1.00:0.00 / mixed_ref=0 / me_range=16 / chroma_me=1 / trellis=0 / 8x8dct=0 / cqm=0 / deadzone=21,11 / fast_pskip=1 / chroma_qp_offset=0 / threads=6 / lookahead_threads=2 / sliced_threads=0 / nr=0 / decimate=1 / interlaced=0 / bluray_compat=0 / constrained_intra=0 / bframes=3 / b_pyramid=2 / b_adapt=1 / b_bias=0 / direct=1 / weightb=1 / open_gop=0 / weightp=1 / keyint=240 / keyint_min=24 / scenecut=40 / intra_refresh=0 / rc_lookahead=10 / rc=crf / mbtree=1 / crf=22.0 / qcomp=0.60 / qpmin=0 / qpmax=69 / qpstep=4 / vbv_maxrate=14000 / vbv_bufsize=14000 / crf_max=0.0 / nal_hrd=none / filler=0 / ip_ratio=1.40 / aq=1:1.00
  41. Encoded date : UTC 2017-10-16 19:41:51
  42. Tagged date : UTC 2017-10-16 19:41:51
  43. Color range : Limited
  44. Color primaries : BT.601 NTSC
  45. Transfer characteristics : BT.709
  46. Matrix coefficients : BT.601
  47. Menus : 3
  48.  
  49. Audio
  50. ID : 2
  51. Format : AAC
  52. Format/Info : Advanced Audio Codec
  53. Format profile : LC
  54. Codec ID : 40
  55. Duration : 48 min 10 s
  56. Bit rate mode : Variable
  57. Bit rate : 160 kb/s
  58. Channel(s) : 2 channels
  59. Channel positions : Front: L R
  60. Sampling rate : 48.0 kHz
  61. Frame rate : 46.875 FPS (1024 spf)
  62. Compression mode : Lossy
  63. Stream size : 55.2 MiB (24%)
  64. Title : Stereo / Stereo
  65. Language : English
  66. Default : Yes
  67. Alternate group : 1
  68. Encoded date : UTC 2017-10-16 19:41:51
  69. Tagged date : UTC 2017-10-16 19:41:51
  70. Menus : 3
  71.  
  72. Menu
  73. ID : 3
  74. Codec ID : text
  75. Duration : 48 min 10 s
  76. Language : English
  77. Encoded date : UTC 2017-10-16 19:41:51
  78. Tagged date : UTC 2017-10-16 19:41:51
  79. Menu For : 1,2
  80. 00:00:00.000 : Chapter 1
  81. 00:02:15.811 : Chapter 2
  82. 00:11:34.335 : Chapter 3
  83. 00:14:43.124 : Chapter 4
  84. 00:17:03.731 : Chapter 5
  85. 00:20:16.624 : Chapter 6
  86. 00:23:22.343 : Chapter 7
  87. 00:30:33.740 : Chapter 8
  88. 00:34:31.912 : Chapter 9
  89. 00:38:42.862 : Chapter 10
  90. 00:43:41.486 : Chapter 11
  91. 00:47:43.269 : Chapter 12
  92. Bit rate mode : VBR
RAW Paste Data