SHARE
TWEET

Dead in the Water WEB-DL 720p

dirtyharrys Jul 8th, 2019 80 Never
Not a member of Pastebin yet? Sign Up, it unlocks many cool features!
  1. General
  2. Unique ID                   : 65581658936169596447777422213254359897 (0x3156916D593882119B1E3627EAA22B59)
  3. Complete name               : E:\V0VCRGVhZGludGhlV2F0ZXI.mkv
  4. Format                      : Matroska
  5. Format version              : Version 4
  6. File size                   : 1.52 GiB
  7. Duration                    : 1 h 27 min
  8. Overall bit rate            : 2 502 kb/s
  9. Movie name                  : Dead in the Water WEB-DL / Dead in the Water WEB-DL
  10. Encoded date                : UTC 2019-07-07 08:18:09
  11. Writing application         : mkvmerge v30.1.0 ('Forever And More') 32-bit
  12. Writing library             : libebml v1.3.6 + libmatroska v1.4.9
  13. Copyright                   : Movies HDs 2019
  14. ARTIST                      : HarshLearner
  15.  
  16. Video
  17. ID                          : 1
  18. Format                      : AVC
  19. Format/Info                 : Advanced Video Codec
  20. Format profile              : High@L4.1
  21. Format settings             : CABAC / 5 Ref Frames
  22. Format settings, CABAC      : Yes
  23. Format settings, ReFrames   : 5 frames
  24. Codec ID                    : V_MPEG4/ISO/AVC
  25. Duration                    : 1 h 27 min
  26. Bit rate                    : 1 800 kb/s
  27. Width                       : 1 280 pixels
  28. Height                      : 720 pixels
  29. Display aspect ratio        : 16:9
  30. Frame rate mode             : Constant
  31. Frame rate                  : 23.976 (24000/1001) FPS
  32. Color space                 : YUV
  33. Chroma subsampling          : 4:2:0
  34. Bit depth                   : 8 bits
  35. Scan type                   : Progressive
  36. Bits/(Pixel*Frame)          : 0.081
  37. Stream size                 : 1.09 GiB (72%)
  38. Title                       : Dead in the Water
  39. Writing library             : x264 core 157 r2935 545de2f
  40. Default                     : Yes
  41. Forced                      : No
  42. Color range                 : Limited
  43. Color primaries             : BT.709
  44. Transfer characteristics    : BT.709
  45. Matrix coefficients         : BT.709
  46.  
  47. Audio #1
  48. ID                          : 2
  49. Format                      : AC-3
  50. Format/Info                 : Audio Coding 3
  51. Commercial name             : Dolby Digital
  52. Codec ID                    : A_AC3
  53. Duration                    : 1 h 27 min
  54. Bit rate mode               : Constant
  55. Bit rate                    : 448 kb/s
  56. Channel(s)                  : 6 channels
  57. Channel layout              : L R C LFE Ls Rs
  58. Sampling rate               : 48.0 kHz
  59. Frame rate                  : 31.250 FPS (1536 SPF)
  60. Bit depth                   : 16 bits
  61. Compression mode            : Lossy
  62. Stream size                 : 279 MiB (18%)
  63. Language                    : English
  64. Service kind                : Complete Main
  65. Default                     : No
  66. Forced                      : No
  67.  
  68. Audio #2
  69. ID                          : 3
  70. Format                      : AC-3
  71. Format/Info                 : Audio Coding 3
  72. Commercial name             : Dolby Digital
  73. Codec ID                    : A_AC3
  74. Duration                    : 1 h 27 min
  75. Bit rate mode               : Constant
  76. Bit rate                    : 256 kb/s
  77. Channel(s)                  : 2 channels
  78. Channel layout              : L R
  79. Sampling rate               : 48.0 kHz
  80. Frame rate                  : 31.250 FPS (1536 SPF)
  81. Bit depth                   : 16 bits
  82. Compression mode            : Lossy
  83. Stream size                 : 160 MiB (10%)
  84. Language                    : Spanish
  85. Service kind                : Complete Main
  86. Default                     : Yes
  87. Forced                      : Yes
  88.  
  89. Text #1
  90. ID                          : 4
  91. Format                      : UTF-8
  92. Codec ID                    : S_TEXT/UTF8
  93. Codec ID/Info               : UTF-8 Plain Text
  94. Duration                    : 1 h 25 min
  95. Bit rate                    : 42 b/s
  96. Count of elements           : 888
  97. Stream size                 : 26.8 KiB (0%)
  98. Language                    : Spanish
  99. Default                     : Yes
  100. Forced                      : Yes
  101.  
  102. Text #2
  103. ID                          : 5
  104. Format                      : UTF-8
  105. Codec ID                    : S_TEXT/UTF8
  106. Codec ID/Info               : UTF-8 Plain Text
  107. Duration                    : 1 h 10 min
  108. Bit rate                    : 0 b/s
  109. Count of elements           : 10
  110. Stream size                 : 219 Bytes (0%)
  111. Language                    : Spanish
  112. Default                     : No
  113. Forced                      : Yes
RAW Paste Data
We use cookies for various purposes including analytics. By continuing to use Pastebin, you agree to our use of cookies as described in the Cookies Policy. OK, I Understand
 
Top