mft39anton

Untitled

Dec 16th, 2013
49
Never
Not a member of Pastebin yet? Sign Up, it unlocks many cool features!
  1. Disc Title: Testament
  2. Disc Size: 22 117 707 693 bytes
  3. Protection: AACS
  4. BD-Java: Yes
  5. BDInfo: 0.5.8
  6.  
  7. Notes:
  8.  
  9. BDINFO HOME:
  10. Cinema Squid
  11. http://www.cinemasquid.com/blu-ray/tools/bdinfo
  12.  
  13. INCLUDES FORUMS REPORT FOR:
  14. AVS Forum Blu-ray Audio and Video Specifications Thread
  15. http://www.avsforum.com/avs-vb/showthread.php?t=1155731
  16.  
  17.  
  18. ********************
  19. PLAYLIST: 00003.MPLS
  20. ********************
  21.  
  22. <--- BEGIN FORUMS PASTE --->
  23. [code]
  24. Total Video
  25. Title Codec Length Movie Size Disc Size Bitrate Bitrate Main Audio Track Secondary Audio Track
  26. ----- ------ ------- -------------- -------------- ------- ------- ------------------ ---------------------
  27. 00003.MPLS AVC 1:42:45 18 612 940 800 22 117 707 693 24,15 21,29 LPCM 2.0 1536Kbps (48kHz/16-bit)
  28. [/code]
  29.  
  30. [code]
  31.  
  32. DISC INFO:
  33.  
  34. Disc Title: Testament
  35. Disc Size: 22 117 707 693 bytes
  36. Protection: AACS
  37. BD-Java: Yes
  38. BDInfo: 0.5.8
  39.  
  40. PLAYLIST REPORT:
  41.  
  42. Name: 00003.MPLS
  43. Length: 1:42:45.666 (h:m:s.ms)
  44. Size: 18 612 940 800 bytes
  45. Total Bitrate: 24,15 Mbps
  46.  
  47. VIDEO:
  48.  
  49. Codec Bitrate Description
  50. ----- ------- -----------
  51. MPEG-4 AVC Video 21292 kbps 1080p / 24 fps / 16:9 / High Profile 4.1
  52.  
  53. AUDIO:
  54.  
  55. Codec Language Bitrate Description
  56. ----- -------- ------- -----------
  57. LPCM Audio Undetermined 1536 kbps 2.0 / 48 kHz / 1536 kbps / 16-bit
  58.  
  59. FILES:
  60.  
  61. Name Time In Length Size Total Bitrate
  62. ---- ------- ------ ---- -------------
  63. 00003.M2TS 0:00:00.000 1:42:45.666 18 612 940 800 24 150
  64.  
  65. CHAPTERS:
  66.  
  67. Number Time In Length Avg Video Rate Max 1-Sec Rate Max 1-Sec Time Max 5-Sec Rate Max 5-Sec Time Max 10Sec Rate Max 10Sec Time Avg Frame Size Max Frame Size Max Frame Time
  68. ------ ------- ------ -------------- -------------- -------------- -------------- -------------- -------------- -------------- -------------- -------------- --------------
  69. 1 0:00:00.000 1:42:45.666 21 292 kbps 57 453 kbps 01:23:31.499 35 599 kbps 00:49:26.541 32 278 kbps 00:00:15.250 110 894 bytes 980 346 bytes 00:00:24.625
  70.  
  71. STREAM DIAGNOSTICS:
  72.  
  73. File PID Type Codec Language Seconds Bitrate Bytes Packets
  74. ---- --- ---- ----- -------- -------------- -------------- ------------- -----
  75. 00003.M2TS 4113 (0x1011) 0x1B AVC 6165,583 21 292 16 409 623 874 89 269 614
  76. 00003.M2TS 4352 (0x1100) 0x80 LPCM und (Undetermined) 6165,583 1 542 1 188 736 298 7 398 798
  77.  
  78. [/code]
  79. <---- END FORUMS PASTE ---->
  80.  
  81. QUICK SUMMARY:
  82.  
  83. Disc Title: Testament
  84. Disc Size: 22 117 707 693 bytes
  85. Protection: AACS
  86. BD-Java: Yes
  87. Playlist: 00003.MPLS
  88. Size: 18 612 940 800 bytes
  89. Length: 1:42:45.666
  90. Total Bitrate: 24,15 Mbps
  91. Video: MPEG-4 AVC Video / 21292 kbps / 1080p / 24 fps / 16:9 / High Profile 4.1
  92. Audio: Undetermined / LPCM Audio / 2.0 / 48 kHz / 1536 kbps / 16-bit
  93.  
  94.  
  95. ********************
  96. PLAYLIST: 01003.MPLS
  97. ********************
  98.  
  99. <--- BEGIN FORUMS PASTE --->
  100. [code]
  101. Total Video
  102. Title Codec Length Movie Size Disc Size Bitrate Bitrate Main Audio Track Secondary Audio Track
  103. ----- ------ ------- -------------- -------------- ------- ------- ------------------ ---------------------
  104. 01003.MPLS AVC 1:42:45 18 612 940 800 22 117 707 693 24,15 21,29 LPCM 2.0 1536Kbps (48kHz/16-bit)
  105. [/code]
  106.  
  107. [code]
  108.  
  109. DISC INFO:
  110.  
  111. Disc Title: Testament
  112. Disc Size: 22 117 707 693 bytes
  113. Protection: AACS
  114. BD-Java: Yes
  115. BDInfo: 0.5.8
  116.  
  117. PLAYLIST REPORT:
  118.  
  119. Name: 01003.MPLS
  120. Length: 1:42:45.666 (h:m:s.ms)
  121. Size: 18 612 940 800 bytes
  122. Total Bitrate: 24,15 Mbps
  123.  
  124. VIDEO:
  125.  
  126. Codec Bitrate Description
  127. ----- ------- -----------
  128. MPEG-4 AVC Video 21292 kbps 1080p / 24 fps / 16:9 / High Profile 4.1
  129.  
  130. AUDIO:
  131.  
  132. Codec Language Bitrate Description
  133. ----- -------- ------- -----------
  134. LPCM Audio Undetermined 1536 kbps 2.0 / 48 kHz / 1536 kbps / 16-bit
  135.  
  136. FILES:
  137.  
  138. Name Time In Length Size Total Bitrate
  139. ---- ------- ------ ---- -------------
  140. 00003.M2TS 0:00:00.000 1:42:45.666 18 612 940 800 24 150
  141.  
  142. CHAPTERS:
  143.  
  144. Number Time In Length Avg Video Rate Max 1-Sec Rate Max 1-Sec Time Max 5-Sec Rate Max 5-Sec Time Max 10Sec Rate Max 10Sec Time Avg Frame Size Max Frame Size Max Frame Time
  145. ------ ------- ------ -------------- -------------- -------------- -------------- -------------- -------------- -------------- -------------- -------------- --------------
  146. 1 0:00:00.000 0:04:31.750 19 506 kbps 56 913 kbps 00:03:39.125 33 559 kbps 00:03:38.875 32 278 kbps 00:00:15.250 101 577 bytes 980 346 bytes 00:00:24.625
  147. 2 0:04:31.750 0:04:16.708 24 278 kbps 44 806 kbps 00:07:16.958 33 378 kbps 00:05:34.250 30 678 kbps 00:05:32.541 126 446 bytes 785 593 bytes 00:04:34.208
  148. 3 0:08:48.458 0:04:17.750 22 531 kbps 48 625 kbps 00:09:08.916 34 351 kbps 00:10:35.000 29 684 kbps 00:10:35.000 117 351 bytes 637 692 bytes 00:10:57.541
  149. 4 0:13:06.208 0:06:25.624 20 086 kbps 57 388 kbps 00:13:57.750 35 236 kbps 00:13:57.750 28 222 kbps 00:17:29.458 104 615 bytes 786 940 bytes 00:16:23.458
  150. 5 0:19:31.833 0:05:17.666 23 102 kbps 43 527 kbps 00:22:24.124 32 643 kbps 00:24:18.291 28 512 kbps 00:21:31.458 120 325 bytes 924 874 bytes 00:19:38.625
  151. 6 0:24:49.500 0:05:55.625 23 016 kbps 52 600 kbps 00:27:53.583 34 070 kbps 00:27:08.333 32 003 kbps 00:28:53.374 119 873 bytes 532 058 bytes 00:29:36.750
  152. 7 0:30:45.125 0:05:43.708 22 265 kbps 47 761 kbps 00:32:45.333 34 458 kbps 00:33:16.833 30 599 kbps 00:33:16.708 115 963 bytes 526 622 bytes 00:33:34.416
  153. 8 0:36:28.833 0:03:11.791 20 372 kbps 57 350 kbps 00:38:24.583 33 760 kbps 00:39:35.625 29 844 kbps 00:39:30.583 106 105 bytes 840 855 bytes 00:38:24.833
  154. 9 0:39:40.625 0:05:23.666 22 822 kbps 47 490 kbps 00:43:30.791 34 085 kbps 00:40:20.333 31 510 kbps 00:40:52.833 118 867 bytes 607 634 bytes 00:42:46.041
  155. 10 0:45:04.291 0:04:12.750 20 651 kbps 57 371 kbps 00:45:14.791 34 939 kbps 00:48:54.666 31 635 kbps 00:48:54.666 107 556 bytes 569 003 bytes 00:47:20.125
  156. 11 0:49:17.041 0:05:40.666 20 317 kbps 57 084 kbps 00:52:30.250 35 599 kbps 00:49:26.541 30 259 kbps 00:50:52.875 105 816 bytes 632 615 bytes 00:52:30.666
  157. 12 0:54:57.708 0:04:32.708 17 350 kbps 54 818 kbps 00:56:19.416 34 525 kbps 00:57:08.208 30 906 kbps 00:57:03.250 90 367 bytes 701 690 bytes 00:56:19.875
  158. 13 0:59:30.416 0:04:42.708 22 187 kbps 57 317 kbps 01:04:05.500 34 630 kbps 01:04:05.500 30 767 kbps 01:00:39.625 115 558 bytes 598 519 bytes 00:59:44.375
  159. 14 1:04:13.125 0:04:57.750 21 634 kbps 44 581 kbps 01:08:18.749 32 974 kbps 01:08:02.041 29 522 kbps 01:04:41.083 112 678 bytes 585 856 bytes 01:06:41.666
  160. 15 1:09:10.875 0:04:31.708 21 197 kbps 52 459 kbps 01:10:10.249 31 822 kbps 01:10:07.125 29 076 kbps 01:10:30.833 110 399 bytes 533 219 bytes 01:10:10.583
  161. 16 1:13:42.583 0:07:11.541 21 854 kbps 51 714 kbps 01:15:16.416 35 173 kbps 01:19:50.291 32 112 kbps 01:19:49.916 113 825 bytes 625 761 bytes 01:14:05.875
  162. 17 1:20:54.125 0:06:52.625 19 635 kbps 57 453 kbps 01:23:31.499 35 564 kbps 01:24:55.291 31 319 kbps 01:24:54.958 102 268 bytes 615 653 bytes 01:20:56.208
  163. 18 1:27:46.750 0:04:49.708 22 597 kbps 45 708 kbps 01:31:37.249 35 068 kbps 01:32:28.291 31 136 kbps 01:32:26.374 117 693 bytes 535 968 bytes 01:30:34.208
  164. 19 1:32:36.458 0:06:56.541 22 793 kbps 49 063 kbps 01:35:01.833 33 135 kbps 01:37:05.333 31 140 kbps 01:37:02.583 118 712 bytes 646 986 bytes 01:33:13.583
  165. 20 1:39:33.000 0:03:12.666 14 538 kbps 36 120 kbps 01:42:28.333 33 996 kbps 01:42:27.416 32 237 kbps 01:42:26.833 75 733 bytes 598 030 bytes 01:42:18.875
  166.  
  167. STREAM DIAGNOSTICS:
  168.  
  169. File PID Type Codec Language Seconds Bitrate Bytes Packets
  170. ---- --- ---- ----- -------- -------------- -------------- ------------- -----
  171. 00003.M2TS 4113 (0x1011) 0x1B AVC 6165,583 21 292 16 409 623 874 89 269 614
  172. 00003.M2TS 4352 (0x1100) 0x80 LPCM und (Undetermined) 6165,583 1 542 1 188 736 298 7 398 798
  173.  
  174. [/code]
  175. <---- END FORUMS PASTE ---->
  176.  
  177. QUICK SUMMARY:
  178.  
  179. Disc Title: Testament
  180. Disc Size: 22 117 707 693 bytes
  181. Protection: AACS
  182. BD-Java: Yes
  183. Playlist: 01003.MPLS
  184. Size: 18 612 940 800 bytes
  185. Length: 1:42:45.666
  186. Total Bitrate: 24,15 Mbps
  187. Video: MPEG-4 AVC Video / 21292 kbps / 1080p / 24 fps / 16:9 / High Profile 4.1
  188. Audio: Undetermined / LPCM Audio / 2.0 / 48 kHz / 1536 kbps / 16-bit
  189.  
  190.  
  191. ********************
  192. PLAYLIST: 00004.MPLS
  193. ********************
  194.  
  195. <--- BEGIN FORUMS PASTE --->
  196. [code]
  197. Total Video
  198. Title Codec Length Movie Size Disc Size Bitrate Bitrate Main Audio Track Secondary Audio Track
  199. ----- ------ ------- -------------- -------------- ------- ------- ------------------ ---------------------
  200. 00004.MPLS AVC 0:11:12 2 125 363 200 22 117 707 693 25,30 22,39 LPCM 2.0 1536Kbps (48kHz/16-bit)
  201. [/code]
  202.  
  203. [code]
  204.  
  205. DISC INFO:
  206.  
  207. Disc Title: Testament
  208. Disc Size: 22 117 707 693 bytes
  209. Protection: AACS
  210. BD-Java: Yes
  211. BDInfo: 0.5.8
  212.  
  213. PLAYLIST REPORT:
  214.  
  215. Name: 00004.MPLS
  216. Length: 0:11:12.083 (h:m:s.ms)
  217. Size: 2 125 363 200 bytes
  218. Total Bitrate: 25,30 Mbps
  219.  
  220. VIDEO:
  221.  
  222. Codec Bitrate Description
  223. ----- ------- -----------
  224. MPEG-4 AVC Video 22392 kbps 1080p / 24 fps / 16:9 / High Profile 4.1
  225.  
  226. AUDIO:
  227.  
  228. Codec Language Bitrate Description
  229. ----- -------- ------- -----------
  230. LPCM Audio Undetermined 1536 kbps 2.0 / 48 kHz / 1536 kbps / 16-bit
  231.  
  232. FILES:
  233.  
  234. Name Time In Length Size Total Bitrate
  235. ---- ------- ------ ---- -------------
  236. 00004.M2TS 0:00:00.000 0:11:12.083 2 125 363 200 25 299
  237.  
  238. CHAPTERS:
  239.  
  240. Number Time In Length Avg Video Rate Max 1-Sec Rate Max 1-Sec Time Max 5-Sec Rate Max 5-Sec Time Max 10Sec Rate Max 10Sec Time Avg Frame Size Max Frame Size Max Frame Time
  241. ------ ------- ------ -------------- -------------- -------------- -------------- -------------- -------------- -------------- -------------- -------------- --------------
  242. 1 0:00:00.000 0:11:12.083 22 392 kbps 56 972 kbps 00:00:00.708 34 116 kbps 00:05:59.875 31 787 kbps 00:10:51.000 116 625 bytes 941 830 bytes 00:00:00.916
  243.  
  244. STREAM DIAGNOSTICS:
  245.  
  246. File PID Type Codec Language Seconds Bitrate Bytes Packets
  247. ---- --- ---- ----- -------- -------------- -------------- ------------- -----
  248. 00004.M2TS 4113 (0x1011) 0x1B AVC 672,000 22 395 1 881 168 249 10 233 201
  249. 00004.M2TS 4352 (0x1100) 0x80 LPCM und (Undetermined) 672,000 1 543 129 576 060 806 490
  250.  
  251. [/code]
  252. <---- END FORUMS PASTE ---->
  253.  
  254. QUICK SUMMARY:
  255.  
  256. Disc Title: Testament
  257. Disc Size: 22 117 707 693 bytes
  258. Protection: AACS
  259. BD-Java: Yes
  260. Playlist: 00004.MPLS
  261. Size: 2 125 363 200 bytes
  262. Length: 0:11:12.083
  263. Total Bitrate: 25,30 Mbps
  264. Video: MPEG-4 AVC Video / 22392 kbps / 1080p / 24 fps / 16:9 / High Profile 4.1
  265. Audio: Undetermined / LPCM Audio / 2.0 / 48 kHz / 1536 kbps / 16-bit
  266.  
  267.  
  268. ********************
  269. PLAYLIST: 01004.MPLS
  270. ********************
  271.  
  272. <--- BEGIN FORUMS PASTE --->
  273. [code]
  274. Total Video
  275. Title Codec Length Movie Size Disc Size Bitrate Bitrate Main Audio Track Secondary Audio Track
  276. ----- ------ ------- -------------- -------------- ------- ------- ------------------ ---------------------
  277. 01004.MPLS AVC 0:11:12 2 125 363 200 22 117 707 693 25,30 22,39 LPCM 2.0 1536Kbps (48kHz/16-bit)
  278. [/code]
  279.  
  280. [code]
  281.  
  282. DISC INFO:
  283.  
  284. Disc Title: Testament
  285. Disc Size: 22 117 707 693 bytes
  286. Protection: AACS
  287. BD-Java: Yes
  288. BDInfo: 0.5.8
  289.  
  290. PLAYLIST REPORT:
  291.  
  292. Name: 01004.MPLS
  293. Length: 0:11:12.083 (h:m:s.ms)
  294. Size: 2 125 363 200 bytes
  295. Total Bitrate: 25,30 Mbps
  296.  
  297. VIDEO:
  298.  
  299. Codec Bitrate Description
  300. ----- ------- -----------
  301. MPEG-4 AVC Video 22392 kbps 1080p / 24 fps / 16:9 / High Profile 4.1
  302.  
  303. AUDIO:
  304.  
  305. Codec Language Bitrate Description
  306. ----- -------- ------- -----------
  307. LPCM Audio Undetermined 1536 kbps 2.0 / 48 kHz / 1536 kbps / 16-bit
  308.  
  309. FILES:
  310.  
  311. Name Time In Length Size Total Bitrate
  312. ---- ------- ------ ---- -------------
  313. 00004.M2TS 0:00:00.000 0:11:12.083 2 125 363 200 25 299
  314.  
  315. CHAPTERS:
  316.  
  317. Number Time In Length Avg Video Rate Max 1-Sec Rate Max 1-Sec Time Max 5-Sec Rate Max 5-Sec Time Max 10Sec Rate Max 10Sec Time Avg Frame Size Max Frame Size Max Frame Time
  318. ------ ------- ------ -------------- -------------- -------------- -------------- -------------- -------------- -------------- -------------- -------------- --------------
  319. 1 0:00:00.000 0:11:12.083 22 392 kbps 56 972 kbps 00:00:00.708 34 116 kbps 00:05:59.875 31 787 kbps 00:10:51.000 116 625 bytes 941 830 bytes 00:00:00.916
  320.  
  321. STREAM DIAGNOSTICS:
  322.  
  323. File PID Type Codec Language Seconds Bitrate Bytes Packets
  324. ---- --- ---- ----- -------- -------------- -------------- ------------- -----
  325. 00004.M2TS 4113 (0x1011) 0x1B AVC 672,000 22 395 1 881 168 249 10 233 201
  326. 00004.M2TS 4352 (0x1100) 0x80 LPCM und (Undetermined) 672,000 1 543 129 576 060 806 490
  327.  
  328. [/code]
  329. <---- END FORUMS PASTE ---->
  330.  
  331. QUICK SUMMARY:
  332.  
  333. Disc Title: Testament
  334. Disc Size: 22 117 707 693 bytes
  335. Protection: AACS
  336. BD-Java: Yes
  337. Playlist: 01004.MPLS
  338. Size: 2 125 363 200 bytes
  339. Length: 0:11:12.083
  340. Total Bitrate: 25,30 Mbps
  341. Video: MPEG-4 AVC Video / 22392 kbps / 1080p / 24 fps / 16:9 / High Profile 4.1
  342. Audio: Undetermined / LPCM Audio / 2.0 / 48 kHz / 1536 kbps / 16-bit
  343.  
  344.  
  345. ********************
  346. PLAYLIST: 00005.MPLS
  347. ********************
  348.  
  349. <--- BEGIN FORUMS PASTE --->
  350. [code]
  351. Total Video
  352. Title Codec Length Movie Size Disc Size Bitrate Bitrate Main Audio Track Secondary Audio Track
  353. ----- ------ ------- -------------- -------------- ------- ------- ------------------ ---------------------
  354. 00005.MPLS AVC 0:05:57 1 089 828 864 22 117 707 693 24,40 21,53 LPCM 2.0 1536Kbps (48kHz/16-bit)
  355. [/code]
  356.  
  357. [code]
  358.  
  359. DISC INFO:
  360.  
  361. Disc Title: Testament
  362. Disc Size: 22 117 707 693 bytes
  363. Protection: AACS
  364. BD-Java: Yes
  365. BDInfo: 0.5.8
  366.  
  367. PLAYLIST REPORT:
  368.  
  369. Name: 00005.MPLS
  370. Length: 0:05:57.291 (h:m:s.ms)
  371. Size: 1 089 828 864 bytes
  372. Total Bitrate: 24,40 Mbps
  373.  
  374. VIDEO:
  375.  
  376. Codec Bitrate Description
  377. ----- ------- -----------
  378. MPEG-4 AVC Video 21533 kbps 1080p / 24 fps / 16:9 / High Profile 4.1
  379.  
  380. AUDIO:
  381.  
  382. Codec Language Bitrate Description
  383. ----- -------- ------- -----------
  384. LPCM Audio Undetermined 1536 kbps 2.0 / 48 kHz / 1536 kbps / 16-bit
  385.  
  386. FILES:
  387.  
  388. Name Time In Length Size Total Bitrate
  389. ---- ------- ------ ---- -------------
  390. 00005.M2TS 0:00:00.000 0:05:57.291 1 089 828 864 24 402
  391.  
  392. CHAPTERS:
  393.  
  394. Number Time In Length Avg Video Rate Max 1-Sec Rate Max 1-Sec Time Max 5-Sec Rate Max 5-Sec Time Max 10Sec Rate Max 10Sec Time Avg Frame Size Max Frame Size Max Frame Time
  395. ------ ------- ------ -------------- -------------- -------------- -------------- -------------- -------------- -------------- -------------- -------------- --------------
  396. 1 0:00:00.000 0:05:57.291 21 533 kbps 47 613 kbps 00:05:17.416 32 452 kbps 00:02:07.250 28 206 kbps 00:03:42.583 112 151 bytes 709 689 bytes 00:01:25.083
  397.  
  398. STREAM DIAGNOSTICS:
  399.  
  400. File PID Type Codec Language Seconds Bitrate Bytes Packets
  401. ---- --- ---- ----- -------- -------------- -------------- ------------- -----
  402. 00005.M2TS 4113 (0x1011) 0x1B AVC 357,167 21 540 961 693 218 5 231 540
  403. 00005.M2TS 4352 (0x1100) 0x80 LPCM und (Undetermined) 357,167 1 543 68 886 476 428 754
  404.  
  405. [/code]
  406. <---- END FORUMS PASTE ---->
  407.  
  408. QUICK SUMMARY:
  409.  
  410. Disc Title: Testament
  411. Disc Size: 22 117 707 693 bytes
  412. Protection: AACS
  413. BD-Java: Yes
  414. Playlist: 00005.MPLS
  415. Size: 1 089 828 864 bytes
  416. Length: 0:05:57.291
  417. Total Bitrate: 24,40 Mbps
  418. Video: MPEG-4 AVC Video / 21533 kbps / 1080p / 24 fps / 16:9 / High Profile 4.1
  419. Audio: Undetermined / LPCM Audio / 2.0 / 48 kHz / 1536 kbps / 16-bit
  420.  
  421.  
  422. ********************
  423. PLAYLIST: 01005.MPLS
  424. ********************
  425.  
  426. <--- BEGIN FORUMS PASTE --->
  427. [code]
  428. Total Video
  429. Title Codec Length Movie Size Disc Size Bitrate Bitrate Main Audio Track Secondary Audio Track
  430. ----- ------ ------- -------------- -------------- ------- ------- ------------------ ---------------------
  431. 01005.MPLS AVC 0:05:57 1 089 828 864 22 117 707 693 24,40 21,53 LPCM 2.0 1536Kbps (48kHz/16-bit)
  432. [/code]
  433.  
  434. [code]
  435.  
  436. DISC INFO:
  437.  
  438. Disc Title: Testament
  439. Disc Size: 22 117 707 693 bytes
  440. Protection: AACS
  441. BD-Java: Yes
  442. BDInfo: 0.5.8
  443.  
  444. PLAYLIST REPORT:
  445.  
  446. Name: 01005.MPLS
  447. Length: 0:05:57.291 (h:m:s.ms)
  448. Size: 1 089 828 864 bytes
  449. Total Bitrate: 24,40 Mbps
  450.  
  451. VIDEO:
  452.  
  453. Codec Bitrate Description
  454. ----- ------- -----------
  455. MPEG-4 AVC Video 21533 kbps 1080p / 24 fps / 16:9 / High Profile 4.1
  456.  
  457. AUDIO:
  458.  
  459. Codec Language Bitrate Description
  460. ----- -------- ------- -----------
  461. LPCM Audio Undetermined 1536 kbps 2.0 / 48 kHz / 1536 kbps / 16-bit
  462.  
  463. FILES:
  464.  
  465. Name Time In Length Size Total Bitrate
  466. ---- ------- ------ ---- -------------
  467. 00005.M2TS 0:00:00.000 0:05:57.291 1 089 828 864 24 402
  468.  
  469. CHAPTERS:
  470.  
  471. Number Time In Length Avg Video Rate Max 1-Sec Rate Max 1-Sec Time Max 5-Sec Rate Max 5-Sec Time Max 10Sec Rate Max 10Sec Time Avg Frame Size Max Frame Size Max Frame Time
  472. ------ ------- ------ -------------- -------------- -------------- -------------- -------------- -------------- -------------- -------------- -------------- --------------
  473. 1 0:00:00.000 0:05:57.291 21 533 kbps 47 613 kbps 00:05:17.416 32 452 kbps 00:02:07.250 28 206 kbps 00:03:42.583 112 151 bytes 709 689 bytes 00:01:25.083
  474.  
  475. STREAM DIAGNOSTICS:
  476.  
  477. File PID Type Codec Language Seconds Bitrate Bytes Packets
  478. ---- --- ---- ----- -------- -------------- -------------- ------------- -----
  479. 00005.M2TS 4113 (0x1011) 0x1B AVC 357,167 21 540 961 693 218 5 231 540
  480. 00005.M2TS 4352 (0x1100) 0x80 LPCM und (Undetermined) 357,167 1 543 68 886 476 428 754
  481.  
  482. [/code]
  483. <---- END FORUMS PASTE ---->
  484.  
  485. QUICK SUMMARY:
  486.  
  487. Disc Title: Testament
  488. Disc Size: 22 117 707 693 bytes
  489. Protection: AACS
  490. BD-Java: Yes
  491. Playlist: 01005.MPLS
  492. Size: 1 089 828 864 bytes
  493. Length: 0:05:57.291
  494. Total Bitrate: 24,40 Mbps
  495. Video: MPEG-4 AVC Video / 21533 kbps / 1080p / 24 fps / 16:9 / High Profile 4.1
  496. Audio: Undetermined / LPCM Audio / 2.0 / 48 kHz / 1536 kbps / 16-bit
  497.  
  498.  
  499. ********************
  500. PLAYLIST: 00002.MPLS
  501. ********************
  502.  
  503. <--- BEGIN FORUMS PASTE --->
  504. [code]
  505. Total Video
  506. Title Codec Length Movie Size Disc Size Bitrate Bitrate Main Audio Track Secondary Audio Track
  507. ----- ------ ------- -------------- -------------- ------- ------- ------------------ ---------------------
  508. 00002.MPLS AVC 0:00:49 155 774 976 22 117 707 693 24,97 22,07 LPCM 2.0 1536Kbps (48kHz/16-bit)
  509. [/code]
  510.  
  511. [code]
  512.  
  513. DISC INFO:
  514.  
  515. Disc Title: Testament
  516. Disc Size: 22 117 707 693 bytes
  517. Protection: AACS
  518. BD-Java: Yes
  519. BDInfo: 0.5.8
  520.  
  521. PLAYLIST REPORT:
  522.  
  523. Name: 00002.MPLS
  524. Length: 0:00:49.916 (h:m:s.ms)
  525. Size: 155 774 976 bytes
  526. Total Bitrate: 24,97 Mbps
  527.  
  528. VIDEO:
  529.  
  530. Codec Bitrate Description
  531. ----- ------- -----------
  532. MPEG-4 AVC Video 22071 kbps 1080p / 24 fps / 16:9 / High Profile 4.1
  533.  
  534. AUDIO:
  535.  
  536. Codec Language Bitrate Description
  537. ----- -------- ------- -----------
  538. LPCM Audio Undetermined 1536 kbps 2.0 / 48 kHz / 1536 kbps / 16-bit
  539.  
  540. FILES:
  541.  
  542. Name Time In Length Size Total Bitrate
  543. ---- ------- ------ ---- -------------
  544. 00002.M2TS 0:00:00.000 0:00:49.916 155 774 976 24 966
  545.  
  546. CHAPTERS:
  547.  
  548. Number Time In Length Avg Video Rate Max 1-Sec Rate Max 1-Sec Time Max 5-Sec Rate Max 5-Sec Time Max 10Sec Rate Max 10Sec Time Avg Frame Size Max Frame Size Max Frame Time
  549. ------ ------- ------ -------------- -------------- -------------- -------------- -------------- -------------- -------------- -------------- -------------- --------------
  550. 1 0:00:00.000 0:00:49.916 22 071 kbps 44 496 kbps 00:00:38.666 30 574 kbps 00:00:43.166 29 595 kbps 00:00:37.666 114 955 bytes 667 641 bytes 00:00:10.416
  551.  
  552. STREAM DIAGNOSTICS:
  553.  
  554. File PID Type Codec Language Seconds Bitrate Bytes Packets
  555. ---- --- ---- ----- -------- -------------- -------------- ------------- -----
  556. 00002.M2TS 4113 (0x1011) 0x1B AVC 49,750 22 145 137 716 077 749 170
  557. 00002.M2TS 4352 (0x1100) 0x80 LPCM und (Undetermined) 49,750 1 548 9 624 576 59 904
  558.  
  559. [/code]
  560. <---- END FORUMS PASTE ---->
  561.  
  562. QUICK SUMMARY:
  563.  
  564. Disc Title: Testament
  565. Disc Size: 22 117 707 693 bytes
  566. Protection: AACS
  567. BD-Java: Yes
  568. Playlist: 00002.MPLS
  569. Size: 155 774 976 bytes
  570. Length: 0:00:49.916
  571. Total Bitrate: 24,97 Mbps
  572. Video: MPEG-4 AVC Video / 22071 kbps / 1080p / 24 fps / 16:9 / High Profile 4.1
  573. Audio: Undetermined / LPCM Audio / 2.0 / 48 kHz / 1536 kbps / 16-bit
  574.  
  575.  
  576. ********************
  577. PLAYLIST: 01002.MPLS
  578. ********************
  579.  
  580. <--- BEGIN FORUMS PASTE --->
  581. [code]
  582. Total Video
  583. Title Codec Length Movie Size Disc Size Bitrate Bitrate Main Audio Track Secondary Audio Track
  584. ----- ------ ------- -------------- -------------- ------- ------- ------------------ ---------------------
  585. 01002.MPLS AVC 0:00:49 155 774 976 22 117 707 693 24,97 22,07 LPCM 2.0 1536Kbps (48kHz/16-bit)
  586. [/code]
  587.  
  588. [code]
  589.  
  590. DISC INFO:
  591.  
  592. Disc Title: Testament
  593. Disc Size: 22 117 707 693 bytes
  594. Protection: AACS
  595. BD-Java: Yes
  596. BDInfo: 0.5.8
  597.  
  598. PLAYLIST REPORT:
  599.  
  600. Name: 01002.MPLS
  601. Length: 0:00:49.916 (h:m:s.ms)
  602. Size: 155 774 976 bytes
  603. Total Bitrate: 24,97 Mbps
  604.  
  605. VIDEO:
  606.  
  607. Codec Bitrate Description
  608. ----- ------- -----------
  609. MPEG-4 AVC Video 22071 kbps 1080p / 24 fps / 16:9 / High Profile 4.1
  610.  
  611. AUDIO:
  612.  
  613. Codec Language Bitrate Description
  614. ----- -------- ------- -----------
  615. LPCM Audio Undetermined 1536 kbps 2.0 / 48 kHz / 1536 kbps / 16-bit
  616.  
  617. FILES:
  618.  
  619. Name Time In Length Size Total Bitrate
  620. ---- ------- ------ ---- -------------
  621. 00002.M2TS 0:00:00.000 0:00:49.916 155 774 976 24 966
  622.  
  623. CHAPTERS:
  624.  
  625. Number Time In Length Avg Video Rate Max 1-Sec Rate Max 1-Sec Time Max 5-Sec Rate Max 5-Sec Time Max 10Sec Rate Max 10Sec Time Avg Frame Size Max Frame Size Max Frame Time
  626. ------ ------- ------ -------------- -------------- -------------- -------------- -------------- -------------- -------------- -------------- -------------- --------------
  627. 1 0:00:00.000 0:00:49.916 22 071 kbps 44 496 kbps 00:00:38.666 30 574 kbps 00:00:43.166 29 595 kbps 00:00:37.666 114 955 bytes 667 641 bytes 00:00:10.416
  628.  
  629. STREAM DIAGNOSTICS:
  630.  
  631. File PID Type Codec Language Seconds Bitrate Bytes Packets
  632. ---- --- ---- ----- -------- -------------- -------------- ------------- -----
  633. 00002.M2TS 4113 (0x1011) 0x1B AVC 49,750 22 145 137 716 077 749 170
  634. 00002.M2TS 4352 (0x1100) 0x80 LPCM und (Undetermined) 49,750 1 548 9 624 576 59 904
  635.  
  636. [/code]
  637. <---- END FORUMS PASTE ---->
  638.  
  639. QUICK SUMMARY:
  640.  
  641. Disc Title: Testament
  642. Disc Size: 22 117 707 693 bytes
  643. Protection: AACS
  644. BD-Java: Yes
  645. Playlist: 01002.MPLS
  646. Size: 155 774 976 bytes
  647. Length: 0:00:49.916
  648. Total Bitrate: 24,97 Mbps
  649. Video: MPEG-4 AVC Video / 22071 kbps / 1080p / 24 fps / 16:9 / High Profile 4.1
  650. Audio: Undetermined / LPCM Audio / 2.0 / 48 kHz / 1536 kbps / 16-bit
  651.  
  652.  
  653. ********************
  654. PLAYLIST: 00001.MPLS
  655. ********************
  656.  
  657. <--- BEGIN FORUMS PASTE --->
  658. [code]
  659. Total Video
  660. Title Codec Length Movie Size Disc Size Bitrate Bitrate Main Audio Track Secondary Audio Track
  661. ----- ------ ------- -------------- -------------- ------- ------- ------------------ ---------------------
  662. 00001.MPLS AVC 0:00:44 127 641 600 22 117 707 693 22,73 19,93 LPCM 2.0 1536Kbps (48kHz/16-bit)
  663. [/code]
  664.  
  665. [code]
  666.  
  667. DISC INFO:
  668.  
  669. Disc Title: Testament
  670. Disc Size: 22 117 707 693 bytes
  671. Protection: AACS
  672. BD-Java: Yes
  673. BDInfo: 0.5.8
  674.  
  675. PLAYLIST REPORT:
  676.  
  677. Name: 00001.MPLS
  678. Length: 0:00:44.916 (h:m:s.ms)
  679. Size: 127 641 600 bytes
  680. Total Bitrate: 22,73 Mbps
  681.  
  682. VIDEO:
  683.  
  684. Codec Bitrate Description
  685. ----- ------- -----------
  686. MPEG-4 AVC Video 19933 kbps 1080p / 24 fps / 16:9 / High Profile 4.1
  687.  
  688. AUDIO:
  689.  
  690. Codec Language Bitrate Description
  691. ----- -------- ------- -----------
  692. LPCM Audio Undetermined 1536 kbps 2.0 / 48 kHz / 1536 kbps / 16-bit
  693.  
  694. FILES:
  695.  
  696. Name Time In Length Size Total Bitrate
  697. ---- ------- ------ ---- -------------
  698. 00001.M2TS 0:00:00.000 0:00:44.916 127 641 600 22 734
  699.  
  700. CHAPTERS:
  701.  
  702. Number Time In Length Avg Video Rate Max 1-Sec Rate Max 1-Sec Time Max 5-Sec Rate Max 5-Sec Time Max 10Sec Rate Max 10Sec Time Avg Frame Size Max Frame Size Max Frame Time
  703. ------ ------- ------ -------------- -------------- -------------- -------------- -------------- -------------- -------------- -------------- -------------- --------------
  704. 1 0:00:00.000 0:00:44.916 19 933 kbps 42 049 kbps 00:00:34.000 32 830 kbps 00:00:33.041 26 729 kbps 00:00:27.041 103 817 bytes 537 278 bytes 00:00:06.000
  705.  
  706. STREAM DIAGNOSTICS:
  707.  
  708. File PID Type Codec Language Seconds Bitrate Bytes Packets
  709. ---- --- ---- ----- -------- -------------- -------------- ------------- -----
  710. 00001.M2TS 4113 (0x1011) 0x1B AVC 44,792 19 989 111 915 253 608 863
  711. 00001.M2TS 4352 (0x1100) 0x80 LPCM und (Undetermined) 44,792 1 547 8 660 576 53 904
  712.  
  713. [/code]
  714. <---- END FORUMS PASTE ---->
  715.  
  716. QUICK SUMMARY:
  717.  
  718. Disc Title: Testament
  719. Disc Size: 22 117 707 693 bytes
  720. Protection: AACS
  721. BD-Java: Yes
  722. Playlist: 00001.MPLS
  723. Size: 127 641 600 bytes
  724. Length: 0:00:44.916
  725. Total Bitrate: 22,73 Mbps
  726. Video: MPEG-4 AVC Video / 19933 kbps / 1080p / 24 fps / 16:9 / High Profile 4.1
  727. Audio: Undetermined / LPCM Audio / 2.0 / 48 kHz / 1536 kbps / 16-bit
  728.  
  729.  
  730. ********************
  731. PLAYLIST: 01001.MPLS
  732. ********************
  733.  
  734. <--- BEGIN FORUMS PASTE --->
  735. [code]
  736. Total Video
  737. Title Codec Length Movie Size Disc Size Bitrate Bitrate Main Audio Track Secondary Audio Track
  738. ----- ------ ------- -------------- -------------- ------- ------- ------------------ ---------------------
  739. 01001.MPLS AVC 0:00:44 127 641 600 22 117 707 693 22,73 19,93 LPCM 2.0 1536Kbps (48kHz/16-bit)
  740. [/code]
  741.  
  742. [code]
  743.  
  744. DISC INFO:
  745.  
  746. Disc Title: Testament
  747. Disc Size: 22 117 707 693 bytes
  748. Protection: AACS
  749. BD-Java: Yes
  750. BDInfo: 0.5.8
  751.  
  752. PLAYLIST REPORT:
  753.  
  754. Name: 01001.MPLS
  755. Length: 0:00:44.916 (h:m:s.ms)
  756. Size: 127 641 600 bytes
  757. Total Bitrate: 22,73 Mbps
  758.  
  759. VIDEO:
  760.  
  761. Codec Bitrate Description
  762. ----- ------- -----------
  763. MPEG-4 AVC Video 19933 kbps 1080p / 24 fps / 16:9 / High Profile 4.1
  764.  
  765. AUDIO:
  766.  
  767. Codec Language Bitrate Description
  768. ----- -------- ------- -----------
  769. LPCM Audio Undetermined 1536 kbps 2.0 / 48 kHz / 1536 kbps / 16-bit
  770.  
  771. FILES:
  772.  
  773. Name Time In Length Size Total Bitrate
  774. ---- ------- ------ ---- -------------
  775. 00001.M2TS 0:00:00.000 0:00:44.916 127 641 600 22 734
  776.  
  777. CHAPTERS:
  778.  
  779. Number Time In Length Avg Video Rate Max 1-Sec Rate Max 1-Sec Time Max 5-Sec Rate Max 5-Sec Time Max 10Sec Rate Max 10Sec Time Avg Frame Size Max Frame Size Max Frame Time
  780. ------ ------- ------ -------------- -------------- -------------- -------------- -------------- -------------- -------------- -------------- -------------- --------------
  781. 1 0:00:00.000 0:00:44.916 19 933 kbps 42 049 kbps 00:00:34.000 32 830 kbps 00:00:33.041 26 729 kbps 00:00:27.041 103 817 bytes 537 278 bytes 00:00:06.000
  782.  
  783. STREAM DIAGNOSTICS:
  784.  
  785. File PID Type Codec Language Seconds Bitrate Bytes Packets
  786. ---- --- ---- ----- -------- -------------- -------------- ------------- -----
  787. 00001.M2TS 4113 (0x1011) 0x1B AVC 44,792 19 989 111 915 253 608 863
  788. 00001.M2TS 4352 (0x1100) 0x80 LPCM und (Undetermined) 44,792 1 547 8 660 576 53 904
  789.  
  790. [/code]
  791. <---- END FORUMS PASTE ---->
  792.  
  793. QUICK SUMMARY:
  794.  
  795. Disc Title: Testament
  796. Disc Size: 22 117 707 693 bytes
  797. Protection: AACS
  798. BD-Java: Yes
  799. Playlist: 01001.MPLS
  800. Size: 127 641 600 bytes
  801. Length: 0:00:44.916
  802. Total Bitrate: 22,73 Mbps
  803. Video: MPEG-4 AVC Video / 19933 kbps / 1080p / 24 fps / 16:9 / High Profile 4.1
  804. Audio: Undetermined / LPCM Audio / 2.0 / 48 kHz / 1536 kbps / 16-bit
RAW Paste Data