SHARE
TWEET

Shiropoint - Pinkie Pie's Party Cannon mix CUE sheet

Photon_Man62 Feb 9th, 2014 432 Never
Not a member of Pastebin yet? Sign Up, it unlocks many cool features!
  1. PERFORMER "Shiropoint"
  2. TITLE "Pinkie Pie's Party Cannon"
  3. FILE "Pinkie's Party Cannon.mp3" MP3
  4.   TRACK 01 AUDIO
  5.     TITLE "01. Tabitha St. Germain & Andrea Libman - Pinkie's Party Cannon"
  6.     INDEX 01 00:00:00
  7.   TRACK 02 AUDIO
  8.     TITLE "02. Shock One - Polygon (feat. Reija Lee)"
  9.     INDEX 01 00:06:00
  10.   TRACK 03 AUDIO
  11.     TITLE "03. Sigma - Paint it Black"
  12.     INDEX 01 04:12:00
  13.   TRACK 04 AUDIO
  14.     TITLE "04. Bungle - Just a Little Bit (feat. Darrison)"
  15.     INDEX 01 08:47:00
  16.   TRACK 05 AUDIO
  17.     TITLE "05. Atlantic Connection - 1979"
  18.     INDEX 01 13:33:00
  19.   TRACK 06 AUDIO
  20.     TITLE "06. Cydelix - Over the World"
  21.     INDEX 01 18:40:00
  22.   TRACK 07 AUDIO
  23.     TITLE "07. Bachelors of Science - People Together"
  24.     INDEX 01 23:50:00
  25.   TRACK 08 AUDIO
  26.     TITLE "08. London Elektricity - The Plan that Cannot Fail"
  27.     INDEX 01 28:57:00
  28.   TRACK 09 AUDIO
  29.     TITLE "09. Medicin - Wisco"
  30.     INDEX 01 34:04:00
  31.   TRACK 10 AUDIO
  32.     TITLE "10. Danny Byrd - Judgement Day (feat. Cyantific + I-Kay)"
  33.     INDEX 01 39:33:00
  34.   TRACK 11 AUDIO
  35.     TITLE "11. Rregula & Muller - Passion Pop"
  36.     INDEX 01 44:08:00
  37.   TRACK 12 AUDIO
  38.     TITLE "12. Sub Focus - Get on Up"
  39.     INDEX 01 49:37:00
  40.   TRACK 13 AUDIO
  41.     TITLE "13. Shock One - Polygon VIP (feat. Reija Lee)"
  42.     INDEX 01 54:44:00
RAW Paste Data
We use cookies for various purposes including analytics. By continuing to use Pastebin, you agree to our use of cookies as described in the Cookies Policy. OK, I Understand
Top