SHARE
TWEET

Untitled

TheRealDudeMe Oct 25th, 2019 80 Never
Not a member of Pastebin yet? Sign Up, it unlocks many cool features!
  1.  
  2. General
  3. Unique ID                                : 202404570306120766510120703867379545510 (0x9845B3C8D74554F6942105AA062475A6)
  4. Complete name                            : Magnum.P.I.2018.S02E05.720p.HDTV.x264-AVS.mkv
  5. Format                                   : Matroska
  6. Format version                           : Version 4 / Version 2
  7. File size                                : 1.54 GiB
  8. Duration                                 : 42mn 38s
  9. Overall bit rate                         : 5 177 Kbps
  10. Encoded date                             : UTC 2019-10-26 01:04:14
  11. Writing application                      : FastLE v3.0.0 - AVS
  12. Writing library                          : libx264 + libebml + libmatroska + libfastrar
  13.  
  14. Video
  15. ID                                       : 1
  16. Format                                   : AVC
  17. Format/Info                              : Advanced Video Codec
  18. Format profile                           : High@L4.1
  19. Format settings, CABAC                   : Yes
  20. Format settings, ReFrames                : 5 frames
  21. Codec ID                                 : V_MPEG4/ISO/AVC
  22. Duration                                 : 42mn 38s
  23. Bit rate                                 : 4 690 Kbps
  24. Width                                    : 1 280 pixels
  25. Height                                   : 718 pixels
  26. Display aspect ratio                     : 16:9
  27. Frame rate mode                          : Constant
  28. Frame rate                               : 23.976 (24000/1001) fps
  29. Color space                              : YUV
  30. Chroma subsampling                       : 4:2:0
  31. Bit depth                                : 8 bits
  32. Scan type                                : Progressive
  33. Bits/(Pixel*Frame)                       : 0.213
  34. Stream size                              : 1.40 GiB (91%)
  35. Writing library                          : x264 core 157 r2969 d4099dd
  36. Encoding settings                        : cabac=1 / ref=5 / deblock=1:0:0 / analyse=0x3:0x113 / me=hex / subme=8 / psy=1 / psy_rd=1.00:0.00 / mixed_ref=1 / me_range=16 / chroma_me=1 / trellis=2 / 8x8dct=1 / cqm=0 / deadzone=21,11 / fast_pskip=1 / chroma_qp_offset=-2 / threads=22 / lookahead_threads=3 / sliced_threads=0 / nr=0 / decimate=1 / interlaced=0 / bluray_compat=0 / constrained_intra=0 / bframes=3 / b_pyramid=2 / b_adapt=1 / b_bias=0 / direct=3 / weightb=1 / open_gop=0 / weightp=2 / keyint=250 / keyint_min=23 / scenecut=40 / intra_refresh=0 / rc_lookahead=50 / rc=crf / mbtree=1 / crf=18.0 / qcomp=0.60 / qpmin=0 / qpmax=69 / qpstep=4 / ip_ratio=1.40 / aq=1:1.00
  37. Default                                  : Yes
  38. Forced                                   : No
  39. Color range                              : Limited
  40. Matrix coefficients                      : BT.709
  41.  
  42. Audio
  43. ID                                       : 2
  44. Format                                   : AC-3
  45. Format/Info                              : Audio Coding 3
  46. Mode extension                           : CM (complete main)
  47. Format settings, Endianness              : Big
  48. Codec ID                                 : A_AC3
  49. Duration                                 : 42mn 38s
  50. Bit rate mode                            : Constant
  51. Bit rate                                 : 384 Kbps
  52. Channel(s)                               : 6 channels
  53. Channel positions                        : Front: L C R, Side: L R, LFE
  54. Sampling rate                            : 48.0 KHz
  55. Frame rate                               : 31.250 fps (1536 spf)
  56. Compression mode                         : Lossy
  57. Stream size                              : 117 MiB (7%)
  58. Default                                  : Yes
  59. Forced                                   : No
RAW Paste Data
We use cookies for various purposes including analytics. By continuing to use Pastebin, you agree to our use of cookies as described in the Cookies Policy. OK, I Understand
Not a member of Pastebin yet?
Sign Up, it unlocks many cool features!
 
Top