SHARE
TWEET

Pokemon Detective Pikachu BluRay 720p

dirtyharrys Jun 6th, 2019 (edited) 64 Never
Not a member of Pastebin yet? Sign Up, it unlocks many cool features!
  1. General
  2. Unique ID                   : 300419247227659074270288528069791216310 (0xE202A475056E7E817A712E46045A72B6)
  3. Complete name               : E:\QlJSUERldGVjdGl2ZVBpa2FjaHU.mkv
  4. Format                      : Matroska
  5. Format version              : Version 4
  6. File size                   : 1.76 GiB
  7. Duration                    : 1 h 44 min
  8. Overall bit rate            : 2 412 kb/s
  9. Movie name                  : Pokemon Detective Pikachu BR-RIP / Pokemon Detective Pikachu BR-RIP
  10. Encoded date                : UTC 2019-07-22 06:52:48
  11. Writing application         : mkvmerge v30.1.0 ('Forever And More') 32-bit
  12. Writing library             : libebml v1.3.6 + libmatroska v1.4.9
  13. Copyright                   : Movies HDs 2019
  14. ARTIST                      : HarshLearner
  15.  
  16. Video
  17. ID                          : 1
  18. Format                      : AVC
  19. Format/Info                 : Advanced Video Codec
  20. Format profile              : High@L4.1
  21. Format settings             : CABAC / 4 Ref Frames
  22. Format settings, CABAC      : Yes
  23. Format settings, ReFrames   : 4 frames
  24. Codec ID                    : V_MPEG4/ISO/AVC
  25. Duration                    : 1 h 44 min
  26. Bit rate                    : 1 500 kb/s
  27. Width                       : 1 280 pixels
  28. Height                      : 536 pixels
  29. Display aspect ratio        : 2.40:1
  30. Frame rate mode             : Constant
  31. Frame rate                  : 23.976 (24000/1001) FPS
  32. Original frame rate         : 23.976 (23976/1000) FPS
  33. Color space                 : YUV
  34. Chroma subsampling          : 4:2:0
  35. Bit depth                   : 8 bits
  36. Scan type                   : Progressive
  37. Bits/(Pixel*Frame)          : 0.091
  38. Stream size                 : 1.09 GiB (62%)
  39. Title                       : Pokemon Detective Pikachu
  40. Writing library             : x264 core 152 r2851M ba24899
  41. Default                     : Yes
  42. Forced                      : No
  43.  
  44. Audio #1
  45. ID                          : 2
  46. Format                      : AC-3
  47. Format/Info                 : Audio Coding 3
  48. Commercial name             : Dolby Digital
  49. Codec ID                    : A_AC3
  50. Duration                    : 1 h 44 min
  51. Bit rate mode               : Constant
  52. Bit rate                    : 448 kb/s
  53. Channel(s)                  : 6 channels
  54. Channel layout              : L R C LFE Ls Rs
  55. Sampling rate               : 48.0 kHz
  56. Frame rate                  : 31.250 FPS (1536 SPF)
  57. Bit depth                   : 16 bits
  58. Compression mode            : Lossy
  59. Stream size                 : 335 MiB (19%)
  60. Language                    : English
  61. Service kind                : Complete Main
  62. Default                     : No
  63. Forced                      : No
  64.  
  65. Audio #2
  66. ID                          : 3
  67. Format                      : AC-3
  68. Format/Info                 : Audio Coding 3
  69. Commercial name             : Dolby Digital
  70. Codec ID                    : A_AC3
  71. Duration                    : 1 h 44 min
  72. Bit rate mode               : Constant
  73. Bit rate                    : 448 kb/s
  74. Channel(s)                  : 6 channels
  75. Channel layout              : L R C LFE Ls Rs
  76. Sampling rate               : 48.0 kHz
  77. Frame rate                  : 31.250 FPS (1536 SPF)
  78. Bit depth                   : 16 bits
  79. Compression mode            : Lossy
  80. Stream size                 : 335 MiB (19%)
  81. Language                    : Spanish
  82. Service kind                : Complete Main
  83. Default                     : Yes
  84. Forced                      : Yes
  85.  
  86. Text #1
  87. ID                          : 4
  88. Format                      : PGS
  89. Muxing mode                 : zlib
  90. Codec ID                    : S_HDMV/PGS
  91. Codec ID/Info               : Picture based subtitle format used on BDs/HD-DVDs
  92. Duration                    : 1 h 42 min
  93. Bit rate                    : 32.2 kb/s
  94. Count of elements           : 2594
  95. Stream size                 : 23.6 MiB (1%)
  96. Language                    : Spanish
  97. Default                     : No
  98. Forced                      : No
  99.  
  100. Text #2
  101. ID                          : 5
  102. Format                      : PGS
  103. Muxing mode                 : zlib
  104. Codec ID                    : S_HDMV/PGS
  105. Codec ID/Info               : Picture based subtitle format used on BDs/HD-DVDs
  106. Duration                    : 1 h 7 min
  107. Bit rate                    : 427 b/s
  108. Count of elements           : 20
  109. Stream size                 : 211 KiB (0%)
  110. Language                    : Spanish
  111. Default                     : No
  112. Forced                      : No
  113.  
  114. Text #3
  115. ID                          : 6
  116. Format                      : UTF-8
  117. Codec ID                    : S_TEXT/UTF8
  118. Codec ID/Info               : UTF-8 Plain Text
  119. Duration                    : 1 h 33 min
  120. Bit rate                    : 63 b/s
  121. Count of elements           : 1394
  122. Stream size                 : 43.7 KiB (0%)
  123. Language                    : English
  124. Default                     : No
  125. Forced                      : No
  126.  
  127. Text #4
  128. ID                          : 7
  129. Format                      : UTF-8
  130. Codec ID                    : S_TEXT/UTF8
  131. Codec ID/Info               : UTF-8 Plain Text
  132. Duration                    : 1 h 36 min
  133. Bit rate                    : 68 b/s
  134. Count of elements           : 1596
  135. Stream size                 : 48.6 KiB (0%)
  136. Title                       : English SDH
  137. Language                    : English
  138. Default                     : No
  139. Forced                      : No
  140.  
  141. Text #5
  142. ID                          : 8
  143. Format                      : UTF-8
  144. Codec ID                    : S_TEXT/UTF8
  145. Codec ID/Info               : UTF-8 Plain Text
  146. Duration                    : 1 h 34 min
  147. Bit rate                    : 72 b/s
  148. Count of elements           : 1360
  149. Stream size                 : 50.3 KiB (0%)
  150. Language                    : Spanish
  151. Default                     : Yes
  152. Forced                      : Yes
  153.  
  154. Menu
  155. 00:00:00.000                : :Chapter 01
  156. 00:06:55.957                : :Chapter 02
  157. 00:15:36.686                : :Chapter 03
  158. 00:24:06.445                : :Chapter 04
  159. 00:31:00.108                : :Chapter 05
  160. 00:40:45.943                : :Chapter 06
  161. 00:49:57.077                : :Chapter 07
  162. 00:59:49.669                : :Chapter 08
  163. 01:09:22.784                : :Chapter 09
  164. 01:16:59.990                : :Chapter 10
  165. 01:23:20.829                : :Chapter 11
  166. 01:30:55.367                : :Chapter 12
  167. 01:35:49.160                : :Chapter 13
RAW Paste Data
We use cookies for various purposes including analytics. By continuing to use Pastebin, you agree to our use of cookies as described in the Cookies Policy. OK, I Understand
 
Top