SHARE
TWEET

Untitled

mft39anton Nov 29th, 2018 87 Never
Not a member of Pastebin yet? Sign Up, it unlocks many cool features!
  1. Exact Audio Copy V1.3 from 2. September 2016
  2.  
  3. EAC extraction logfile from 6. November 2018, 6:31
  4.  
  5. Whitesnake / The Purple Tour
  6.  
  7. Used drive  : TSSTcorpCDDVDW SU-208FB   Adapter: 1  ID: 0
  8.  
  9. Read mode               : Secure
  10. Utilize accurate stream : Yes
  11. Defeat audio cache      : Yes
  12. Make use of C2 pointers : No
  13.  
  14. Read offset correction                      : 6
  15. Overread into Lead-In and Lead-Out          : No
  16. Fill up missing offset samples with silence : Yes
  17. Delete leading and trailing silent blocks   : No
  18. Null samples used in CRC calculations       : Yes
  19. Used interface                              : Native Win32 interface for Win NT & 2000
  20. Gap handling                                : Appended to previous track
  21.  
  22. Used output format              : User Defined Encoder
  23. Selected bitrate                : 1024 kBit/s
  24. Quality                         : High
  25. Add ID3 tag                     : No
  26. Command line compressor         : C:\Program Files (x86)\Exact Audio Copy\Flac\flac.exe
  27. Additional command line options : -8 -e -p -V -T "ARTIST=%artist%" -T "TITLE=%title%" -T "ALBUM=%albumtitle%" -T "DATE=%year%" -T "TRACKNUMBER=%tracknr%" -T "GENRE=%genre%" -T "PERFORMER=%albuminterpret%" -T "COMPOSER=%composer%" %haslyrics%--tag-from-file=LYRICS="%lyricsfile%"%haslyrics% -T "ALBUMARTIST=%albumartist%" -T "DISCNUMBER=%cdnumber%" -T "TOTALDISCS=%totalcds%" -T "TOTALTRACKS=%numtracks%" -T "COMMENT=%comment%" %source% -o %dest%
  28.  
  29.  
  30. TOC of the extracted CD
  31.  
  32.      Track |   Start  |  Length  | Start sector | End sector
  33.     ---------------------------------------------------------
  34.         1  |  0:00.00 |  8:00.50 |         0    |    36049  
  35.         2  |  8:00.50 |  5:32.38 |     36050    |    60987  
  36.         3  | 13:33.13 |  4:19.32 |     60988    |    80444  
  37.         4  | 17:52.45 |  5:24.17 |     80445    |   104761  
  38.         5  | 23:16.62 |  4:28.69 |    104762    |   124930  
  39.         6  | 27:45.56 |  6:38.64 |    124931    |   154844  
  40.         7  | 34:24.45 |  7:56.57 |    154845    |   190601  
  41.         8  | 42:21.27 |  5:17.30 |    190602    |   214406  
  42.         9  | 47:38.57 |  3:47.62 |    214407    |   231493  
  43.        10  | 51:26.44 |  4:38.24 |    231494    |   252367  
  44.        11  | 56:04.68 |  4:22.15 |    252368    |   272032  
  45.        12  | 60:27.08 |  5:43.17 |    272033    |   297774  
  46.        13  | 66:10.25 |  8:30.51 |    297775    |   336075  
  47.  
  48.  
  49. Track  1
  50.  
  51.      Filename C:\Users\ILTP\Desktop\Whitesnake - The Purple Tour (2018) [FLAC] {603497862856}\01 - Burn.wav
  52.  
  53.      Pre-gap length  0:00:02.00
  54.  
  55.      Peak level 87.0 %
  56.      Extraction speed 2.7 X
  57.      Track quality 100.0 %
  58.      Copy CRC 4954A595
  59.      Accurately ripped (confidence 19)  [9C8E9781]  (AR v2)
  60.      Copy OK
  61.  
  62. Track  2
  63.  
  64.      Filename C:\Users\ILTP\Desktop\Whitesnake - The Purple Tour (2018) [FLAC] {603497862856}\02 - Bad Boys.wav
  65.  
  66.      Peak level 87.0 %
  67.      Extraction speed 2.9 X
  68.      Track quality 100.0 %
  69.      Copy CRC 0E901561
  70.      Accurately ripped (confidence 19)  [54A10F8D]  (AR v2)
  71.      Copy OK
  72.  
  73. Track  3
  74.  
  75.      Copy aborted
  76.  
  77. Track  4
  78.  
  79.      Copy aborted
  80.  
  81. Track  5
  82.  
  83.      Copy aborted
  84.  
  85. Track  6
  86.  
  87.      Copy aborted
  88.  
  89. Track  7
  90.  
  91.      Copy aborted
  92.  
  93. Track  8
  94.  
  95.      Copy aborted
  96.  
  97. Track  9
  98.  
  99.      Copy aborted
  100.  
  101. Track 10
  102.  
  103.      Copy aborted
  104.  
  105. Track 11
  106.  
  107.      Copy aborted
  108.  
  109. Track 12
  110.  
  111.      Copy aborted
  112.  
  113. Track 13
  114.  
  115.      Copy aborted
  116.  
  117.  
  118.  2 track(s) accurately ripped
  119. 11 track(s) canceled
  120.  
  121. Some tracks could not be verified as accurate
  122.  
  123. There were errors
  124.  
  125. End of status report
  126.  
  127. ==== Log checksum F6730A85145E377C492D30046EE3E0BBEE671C227C2FF65670A3CB85EED6F36D ====
  128.  
  129. ------------------------------------------------------------
  130.  
  131. Exact Audio Copy V1.3 from 2. September 2016
  132.  
  133. EAC extraction logfile from 6. November 2018, 7:45
  134.  
  135. Whitesnake / The Purple Tour
  136.  
  137. Used drive  : TSSTcorpCDDVDW SU-208FB   Adapter: 1  ID: 0
  138.  
  139. Read mode               : Secure
  140. Utilize accurate stream : Yes
  141. Defeat audio cache      : Yes
  142. Make use of C2 pointers : No
  143.  
  144. Read offset correction                      : 6
  145. Overread into Lead-In and Lead-Out          : No
  146. Fill up missing offset samples with silence : Yes
  147. Delete leading and trailing silent blocks   : No
  148. Null samples used in CRC calculations       : Yes
  149. Used interface                              : Native Win32 interface for Win NT & 2000
  150. Gap handling                                : Appended to previous track
  151.  
  152. Used output format              : User Defined Encoder
  153. Selected bitrate                : 1024 kBit/s
  154. Quality                         : High
  155. Add ID3 tag                     : No
  156. Command line compressor         : C:\Program Files (x86)\Exact Audio Copy\Flac\flac.exe
  157. Additional command line options : -8 -e -p -V -T "ARTIST=%artist%" -T "TITLE=%title%" -T "ALBUM=%albumtitle%" -T "DATE=%year%" -T "TRACKNUMBER=%tracknr%" -T "GENRE=%genre%" -T "PERFORMER=%albuminterpret%" -T "COMPOSER=%composer%" %haslyrics%--tag-from-file=LYRICS="%lyricsfile%"%haslyrics% -T "ALBUMARTIST=%albumartist%" -T "DISCNUMBER=%cdnumber%" -T "TOTALDISCS=%totalcds%" -T "TOTALTRACKS=%numtracks%" -T "COMMENT=%comment%" %source% -o %dest%
  158.  
  159.  
  160. TOC of the extracted CD
  161.  
  162.      Track |   Start  |  Length  | Start sector | End sector
  163.     ---------------------------------------------------------
  164.         1  |  0:00.00 |  8:00.50 |         0    |    36049  
  165.         2  |  8:00.50 |  5:32.38 |     36050    |    60987  
  166.         3  | 13:33.13 |  4:19.32 |     60988    |    80444  
  167.         4  | 17:52.45 |  5:24.17 |     80445    |   104761  
  168.         5  | 23:16.62 |  4:28.69 |    104762    |   124930  
  169.         6  | 27:45.56 |  6:38.64 |    124931    |   154844  
  170.         7  | 34:24.45 |  7:56.57 |    154845    |   190601  
  171.         8  | 42:21.27 |  5:17.30 |    190602    |   214406  
  172.         9  | 47:38.57 |  3:47.62 |    214407    |   231493  
  173.        10  | 51:26.44 |  4:38.24 |    231494    |   252367  
  174.        11  | 56:04.68 |  4:22.15 |    252368    |   272032  
  175.        12  | 60:27.08 |  5:43.17 |    272033    |   297774  
  176.        13  | 66:10.25 |  8:30.51 |    297775    |   336075  
  177.  
  178.  
  179. Track  1
  180.  
  181.      Filename C:\Users\ILTP\Desktop\Whitesnake - The Purple Tour (2018) [FLAC] {603497862856}\01 - Burn.wav
  182.  
  183.      Pre-gap length  0:00:02.00
  184.  
  185.      Peak level 87.0 %
  186.      Extraction speed 2.8 X
  187.      Track quality 100.0 %
  188.      Test CRC 4954A595
  189.      Copy CRC 4954A595
  190.      Accurately ripped (confidence 19)  [9C8E9781]  (AR v2)
  191.      Copy OK
  192.  
  193. Track  2
  194.  
  195.      Filename C:\Users\ILTP\Desktop\Whitesnake - The Purple Tour (2018) [FLAC] {603497862856}\02 - Bad Boys.wav
  196.  
  197.      Peak level 87.0 %
  198.      Extraction speed 3.0 X
  199.      Track quality 100.0 %
  200.      Test CRC 0E901561
  201.      Copy CRC 0E901561
  202.      Accurately ripped (confidence 19)  [54A10F8D]  (AR v2)
  203.      Copy OK
  204.  
  205. Track  3
  206.  
  207.      Filename C:\Users\ILTP\Desktop\Whitesnake - The Purple Tour (2018) [FLAC] {603497862856}\03 - Love Ain't No Stranger.wav
  208.  
  209.      Peak level 87.0 %
  210.      Extraction speed 3.2 X
  211.      Track quality 100.0 %
  212.      Test CRC 916B2303
  213.      Copy CRC 916B2303
  214.      Accurately ripped (confidence 19)  [561C1F28]  (AR v2)
  215.      Copy OK
  216.  
  217. Track  4
  218.  
  219.      Filename C:\Users\ILTP\Desktop\Whitesnake - The Purple Tour (2018) [FLAC] {603497862856}\04 - The Gypsy.wav
  220.  
  221.      Peak level 87.0 %
  222.      Extraction speed 3.5 X
  223.      Track quality 100.0 %
  224.      Test CRC 05FAA59E
  225.      Copy CRC 05FAA59E
  226.      Accurately ripped (confidence 19)  [42A5E064]  (AR v2)
  227.      Copy OK
  228.  
  229. Track  5
  230.  
  231.      Filename C:\Users\ILTP\Desktop\Whitesnake - The Purple Tour (2018) [FLAC] {603497862856}\05 - Give Me All Your Love.wav
  232.  
  233.      Peak level 87.0 %
  234.      Extraction speed 2.9 X
  235.      Track quality 99.9 %
  236.      Test CRC E6410340
  237.      Copy CRC E6410340
  238.      Accurately ripped (confidence 19)  [F18C5C15]  (AR v2)
  239.      Copy OK
  240.  
  241. Track  6
  242.  
  243.      Filename C:\Users\ILTP\Desktop\Whitesnake - The Purple Tour (2018) [FLAC] {603497862856}\06 - Ain't No Love in the Heart of the City.wav
  244.  
  245.      Peak level 87.0 %
  246.      Extraction speed 4.0 X
  247.      Track quality 100.0 %
  248.      Test CRC C01C9A3E
  249.      Copy CRC C01C9A3E
  250.      Accurately ripped (confidence 19)  [53EE6848]  (AR v2)
  251.      Copy OK
  252.  
  253. Track  7
  254.  
  255.      Filename C:\Users\ILTP\Desktop\Whitesnake - The Purple Tour (2018) [FLAC] {603497862856}\07 - Mistreated.wav
  256.  
  257.      Peak level 87.0 %
  258.      Extraction speed 3.7 X
  259.      Track quality 99.9 %
  260.      Test CRC 15DEE025
  261.      Copy CRC 15DEE025
  262.      Accurately ripped (confidence 19)  [9598F2B0]  (AR v2)
  263.      Copy OK
  264.  
  265. Track  8
  266.  
  267.      Filename C:\Users\ILTP\Desktop\Whitesnake - The Purple Tour (2018) [FLAC] {603497862856}\08 - You Fool No One.wav
  268.  
  269.      Peak level 87.0 %
  270.      Extraction speed 3.6 X
  271.      Track quality 99.9 %
  272.      Test CRC 430DF8FA
  273.      Copy CRC 430DF8FA
  274.      Accurately ripped (confidence 19)  [49A1817A]  (AR v2)
  275.      Copy OK
  276.  
  277. Track  9
  278.  
  279.      Filename C:\Users\ILTP\Desktop\Whitesnake - The Purple Tour (2018) [FLAC] {603497862856}\09 - Soldier of Fortune.wav
  280.  
  281.      Peak level 76.4 %
  282.      Extraction speed 4.4 X
  283.      Track quality 100.0 %
  284.      Test CRC 22470659
  285.      Copy CRC 22470659
  286.      Accurately ripped (confidence 19)  [1F3B4E10]  (AR v2)
  287.      Copy OK
  288.  
  289. Track 10
  290.  
  291.      Filename C:\Users\ILTP\Desktop\Whitesnake - The Purple Tour (2018) [FLAC] {603497862856}\10 - Is This Love.wav
  292.  
  293.      Peak level 87.0 %
  294.      Extraction speed 4.7 X
  295.      Track quality 100.0 %
  296.      Test CRC 86D61B45
  297.      Copy CRC 86D61B45
  298.      Accurately ripped (confidence 19)  [6DA8B00F]  (AR v2)
  299.      Copy OK
  300.  
  301. Track 11
  302.  
  303.      Filename C:\Users\ILTP\Desktop\Whitesnake - The Purple Tour (2018) [FLAC] {603497862856}\11 - Fool for Your Loving.wav
  304.  
  305.      Peak level 87.0 %
  306.      Extraction speed 4.7 X
  307.      Track quality 100.0 %
  308.      Test CRC 6682612B
  309.      Copy CRC 6682612B
  310.      Accurately ripped (confidence 19)  [5393F405]  (AR v2)
  311.      Copy OK
  312.  
  313. Track 12
  314.  
  315.      Filename C:\Users\ILTP\Desktop\Whitesnake - The Purple Tour (2018) [FLAC] {603497862856}\12 - Here I Go Again.wav
  316.  
  317.      Peak level 87.0 %
  318.      Extraction speed 5.0 X
  319.      Track quality 100.0 %
  320.      Test CRC 20F9BCDD
  321.      Copy CRC 20F9BCDD
  322.      Accurately ripped (confidence 19)  [45EDA775]  (AR v2)
  323.      Copy OK
  324.  
  325. Track 13
  326.  
  327.      Filename C:\Users\ILTP\Desktop\Whitesnake - The Purple Tour (2018) [FLAC] {603497862856}\13 - Still of the Night.wav
  328.  
  329.      Peak level 87.0 %
  330.      Extraction speed 5.3 X
  331.      Track quality 100.0 %
  332.      Test CRC 884B0064
  333.      Copy CRC 884B0064
  334.      Accurately ripped (confidence 19)  [AD336703]  (AR v2)
  335.      Copy OK
  336.  
  337.  
  338. All tracks accurately ripped
  339.  
  340. No errors occurred
  341.  
  342. End of status report
  343.  
  344. ---- CUETools DB Plugin V2.1.6
  345.  
  346. [CTDB TOCID: y.bjvapqF85HNH9heEp_AuAx1f0-] found
  347. Submit result: y.bjvapqF85HNH9heEp_AuAx1f0- has been confirmed
  348. Track | CTDB Status
  349.   1   | (95/95) Accurately ripped
  350.   2   | (95/95) Accurately ripped
  351.   3   | (95/95) Accurately ripped
  352.   4   | (95/95) Accurately ripped
  353.   5   | (95/95) Accurately ripped
  354.   6   | (95/95) Accurately ripped
  355.   7   | (95/95) Accurately ripped
  356.   8   | (94/95) Accurately ripped
  357.   9   | (94/95) Accurately ripped
  358.  10   | (94/95) Accurately ripped
  359.  11   | (94/95) Accurately ripped
  360.  12   | (94/95) Accurately ripped
  361.  13   | (94/95) Accurately ripped
  362.  
  363.  
  364. ==== Log checksum 5C636062B16701E6F1093AF698B6141A9F2D433A3CC2D33E75476DD2B05E3BB6 ====
RAW Paste Data
We use cookies for various purposes including analytics. By continuing to use Pastebin, you agree to our use of cookies as described in the Cookies Policy. OK, I Understand
 
Top