Guest User

Flushed.Away.2006.1080p.BluRay.REMUX.AVC.DTS-HD.MA.5.1-EPSiLON

a guest
May 16th, 2019
35
Never
Not a member of Pastebin yet? Sign Up, it unlocks many cool features!
  1. General
  2. Unique ID                                : 333019745927254184970584671012158545760 (0xFA894523A887C28E0BB60EB470159F60)
  3. Complete name                            : Flushed.Away.2006.1080p.BluRay.REMUX.AVC.DTS-HD.MA.5.1-EPSiLON.mkv
  4. Format                                   : Matroska
  5. Format version                           : Version 4
  6. File size                                : 20.0 GiB
  7. Duration                                 : 1 h 25 min
  8. Overall bit rate mode                    : Variable
  9. Overall bit rate                         : 33.7 Mb/s
  10. Encoded date                             : UTC 2019-03-12 04:35:52
  11. Writing application                      : mkvmerge v31.0.0 ('Dolores In A Shoestand') 64-bit
  12. Writing library                          : libebml v1.3.6 + libmatroska v1.4.9
  13.  
  14. Video
  15. ID                                       : 1
  16. Format                                   : AVC
  17. Format/Info                              : Advanced Video Codec
  18. Format profile                           : High@L4.1
  19. Format settings                          : CABAC / 4 Ref Frames
  20. Format settings, CABAC                   : Yes
  21. Format settings, Reference frames        : 4 frames
  22. Format settings, GOP                     : M=3, N=12
  23. Codec ID                                 : V_MPEG4/ISO/AVC
  24. Duration                                 : 1 h 25 min
  25. Bit rate mode                            : Variable
  26. Bit rate                                 : 31.0 Mb/s
  27. Maximum bit rate                         : 34.6 Mb/s
  28. Width                                    : 1 920 pixels
  29. Height                                   : 1 080 pixels
  30. Display aspect ratio                     : 16:9
  31. Frame rate mode                          : Constant
  32. Frame rate                               : 23.976 (24000/1001) FPS
  33. Color space                              : YUV
  34. Chroma subsampling                       : 4:2:0
  35. Bit depth                                : 8 bits
  36. Scan type                                : Progressive
  37. Bits/(Pixel*Frame)                       : 0.623
  38. Stream size                              : 18.4 GiB (92%)
  39. Title                                    : MPEG-4 AVC Video / 31163 kbps / 1080p / 23.976 fps / 16:9 / High Profile 4.1
  40. Language                                 : English
  41. Default                                  : Yes
  42. Forced                                   : No
  43.  
  44. Audio #1
  45. ID                                       : 2
  46. Format                                   : DTS XLL
  47. Format/Info                              : Digital Theater Systems
  48. Commercial name                          : DTS-HD Master Audio
  49. Codec ID                                 : A_DTS
  50. Duration                                 : 1 h 25 min
  51. Bit rate mode                            : Variable
  52. Bit rate                                 : 2 032 kb/s
  53. Channel(s)                               : 6 channels
  54. Channel layout                           : C L R Ls Rs LFE
  55. Sampling rate                            : 48.0 kHz
  56. Frame rate                               : 93.750 FPS (512 SPF)
  57. Bit depth                                : 24 bits
  58. Compression mode                         : Lossless
  59. Stream size                              : 1.21 GiB (6%)
  60. Title                                    : DTS-HD Master Audio / 5.1 / 48 kHz /  2032 kbps / 24-bit
  61. Language                                 : English
  62. Default                                  : Yes
  63. Forced                                   : No
  64.  
  65. Audio #2
  66. ID                                       : 3
  67. Format                                   : DTS
  68. Format/Info                              : Digital Theater Systems
  69. Codec ID                                 : A_DTS
  70. Duration                                 : 1 h 25 min
  71. Bit rate mode                            : Constant
  72. Bit rate                                 : 255 kb/s
  73. Channel(s)                               : 2 channels
  74. Channel layout                           : Lt Rt
  75. Sampling rate                            : 48.0 kHz
  76. Frame rate                               : 93.750 FPS (512 SPF)
  77. Bit depth                                : 24 bits
  78. Compression mode                         : Lossy
  79. Stream size                              : 155 MiB (1%)
  80. Title                                    : Commentary by co-directors David Bowers and Sam Fell
  81. Language                                 : English
  82. Default                                  : No
  83. Forced                                   : No
  84.  
  85. Text #1
  86. ID                                       : 4
  87. Format                                   : PGS
  88. Codec ID                                 : S_HDMV/PGS
  89. Codec ID/Info                            : Picture based subtitle format used on BDs/HD-DVDs
  90. Duration                                 : 1 h 23 min
  91. Bit rate                                 : 58.7 kb/s
  92. Count of elements                        : 3281
  93. Stream size                              : 35.2 MiB (0%)
  94. Language                                 : English
  95. Default                                  : No
  96. Forced                                   : No
  97.  
  98. Text #2
  99. ID                                       : 5
  100. Format                                   : PGS
  101. Codec ID                                 : S_HDMV/PGS
  102. Codec ID/Info                            : Picture based subtitle format used on BDs/HD-DVDs
  103. Duration                                 : 1 h 24 min
  104. Bit rate                                 : 34.9 kb/s
  105. Count of elements                        : 2150
  106. Stream size                              : 21.0 MiB (0%)
  107. Default                                  : No
  108. Forced                                   : No
  109.  
  110. Text #3
  111. ID                                       : 6
  112. Format                                   : PGS
  113. Codec ID                                 : S_HDMV/PGS
  114. Codec ID/Info                            : Picture based subtitle format used on BDs/HD-DVDs
  115. Duration                                 : 1 h 24 min
  116. Bit rate                                 : 32.9 kb/s
  117. Count of elements                        : 2161
  118. Stream size                              : 19.8 MiB (0%)
  119. Language                                 : French
  120. Default                                  : No
  121. Forced                                   : No
  122.  
  123. Text #4
  124. ID                                       : 7
  125. Format                                   : PGS
  126. Codec ID                                 : S_HDMV/PGS
  127. Codec ID/Info                            : Picture based subtitle format used on BDs/HD-DVDs
  128. Duration                                 : 1 h 24 min
  129. Bit rate                                 : 42.1 kb/s
  130. Count of elements                        : 2229
  131. Stream size                              : 25.3 MiB (0%)
  132. Language                                 : German
  133. Default                                  : No
  134. Forced                                   : No
  135.  
  136. Text #5
  137. ID                                       : 8
  138. Format                                   : PGS
  139. Codec ID                                 : S_HDMV/PGS
  140. Codec ID/Info                            : Picture based subtitle format used on BDs/HD-DVDs
  141. Duration                                 : 1 h 24 min
  142. Bit rate                                 : 39.0 kb/s
  143. Count of elements                        : 2202
  144. Stream size                              : 23.4 MiB (0%)
  145. Language                                 : Italian
  146. Default                                  : No
  147. Forced                                   : No
  148.  
  149. Text #6
  150. ID                                       : 9
  151. Format                                   : PGS
  152. Codec ID                                 : S_HDMV/PGS
  153. Codec ID/Info                            : Picture based subtitle format used on BDs/HD-DVDs
  154. Duration                                 : 1 h 24 min
  155. Bit rate                                 : 24.3 kb/s
  156. Count of elements                        : 2223
  157. Stream size                              : 14.6 MiB (0%)
  158. Language                                 : Japanese
  159. Default                                  : No
  160. Forced                                   : No
  161.  
  162. Text #7
  163. ID                                       : 10
  164. Format                                   : PGS
  165. Codec ID                                 : S_HDMV/PGS
  166. Codec ID/Info                            : Picture based subtitle format used on BDs/HD-DVDs
  167. Duration                                 : 1 h 24 min
  168. Bit rate                                 : 37.0 kb/s
  169. Count of elements                        : 2108
  170. Stream size                              : 22.2 MiB (0%)
  171. Title                                    : Brazilian
  172. Language                                 : Portuguese
  173. Default                                  : No
  174. Forced                                   : No
  175.  
  176. Text #8
  177. ID                                       : 11
  178. Format                                   : PGS
  179. Codec ID                                 : S_HDMV/PGS
  180. Codec ID/Info                            : Picture based subtitle format used on BDs/HD-DVDs
  181. Duration                                 : 1 h 23 min
  182. Bit rate                                 : 34.9 kb/s
  183. Count of elements                        : 2124
  184. Stream size                              : 21.0 MiB (0%)
  185. Title                                    : Castilian
  186. Language                                 : Spanish
  187. Default                                  : No
  188. Forced                                   : No
  189.  
  190. Text #9
  191. ID                                       : 12
  192. Format                                   : PGS
  193. Codec ID                                 : S_HDMV/PGS
  194. Codec ID/Info                            : Picture based subtitle format used on BDs/HD-DVDs
  195. Duration                                 : 1 h 24 min
  196. Bit rate                                 : 37.9 kb/s
  197. Count of elements                        : 2141
  198. Stream size                              : 22.8 MiB (0%)
  199. Title                                    : Latin American
  200. Language                                 : Spanish
  201. Default                                  : No
  202. Forced                                   : No
  203.  
  204. Text #10
  205. ID                                       : 13
  206. Format                                   : PGS
  207. Codec ID                                 : S_HDMV/PGS
  208. Codec ID/Info                            : Picture based subtitle format used on BDs/HD-DVDs
  209. Duration                                 : 1 h 16 min
  210. Bit rate                                 : 98.0 kb/s
  211. Count of elements                        : 3579
  212. Stream size                              : 53.8 MiB (0%)
  213. Title                                    : Commentary by co-directors David Bowers and Sam Fell
  214. Language                                 : English
  215. Default                                  : No
  216. Forced                                   : No
  217.  
  218. Menu
  219. 00:00:00.000                             : :Chapter 1
  220. 00:04:16.131                             : :Chapter 2
  221. 00:07:47.717                             : :Chapter 3
  222. 00:11:23.182                             : :Chapter 4
  223. 00:14:08.014                             : :Chapter 5
  224. 00:19:29.585                             : :Chapter 6
  225. 00:24:36.183                             : :Chapter 7
  226. 00:28:05.809                             : :Chapter 8
  227. 00:31:25.634                             : :Chapter 9
  228. 00:37:35.670                             : :Chapter 10
  229. 00:43:08.336                             : :Chapter 11
  230. 00:47:14.957                             : :Chapter 12
  231. 00:53:05.557                             : :Chapter 13
  232. 00:58:12.739                             : :Chapter 14
  233. 01:04:23.151                             : :Chapter 15
  234. 01:07:48.731                             : :Chapter 16
  235. 01:11:18.316                             : :Chapter 17
  236. 01:16:35.716                             : :Chapter 18
RAW Paste Data