SHARE
TWEET

U - July 22 BluRay 720p

dirtyharrys Jul 5th, 2019 89 Never
Not a member of Pastebin yet? Sign Up, it unlocks many cool features!
  1. General
  2. Unique ID                   : 4703856984900918597222181895023111863 (0x389EE0E10F42E008CECEF4512542EB7)
  3. Complete name               : E:\QlJSVS1KdWx5IDIy.mkv
  4. Format                      : Matroska
  5. Format version              : Version 4
  6. File size                   : 1.65 GiB
  7. Duration                    : 1 h 32 min
  8. Overall bit rate            : 2 539 kb/s
  9. Movie name                  : U - July 22 BR-RIP / U - July 22 BR-RIP
  10. Encoded date                : UTC 2019-07-05 08:29:49
  11. Writing application         : mkvmerge v30.1.0 ('Forever And More') 32-bit
  12. Writing library             : libebml v1.3.6 + libmatroska v1.4.9
  13. Copyright                   : Movies HDs 2019
  14. ARTIST                      : HarshLearner
  15.  
  16. Video
  17. ID                          : 1
  18. Format                      : AVC
  19. Format/Info                 : Advanced Video Codec
  20. Format profile              : High@L4.1
  21. Format settings             : CABAC / 5 Ref Frames
  22. Format settings, CABAC      : Yes
  23. Format settings, ReFrames   : 5 frames
  24. Codec ID                    : V_MPEG4/ISO/AVC
  25. Duration                    : 1 h 32 min
  26. Bit rate                    : 1 705 kb/s
  27. Nominal bit rate            : 1 800 kb/s
  28. Width                       : 1 280 pixels
  29. Height                      : 690 pixels
  30. Display aspect ratio        : 1.85:1
  31. Frame rate mode             : Constant
  32. Frame rate                  : 25.000 FPS
  33. Color space                 : YUV
  34. Chroma subsampling          : 4:2:0
  35. Bit depth                   : 8 bits
  36. Scan type                   : Progressive
  37. Bits/(Pixel*Frame)          : 0.077
  38. Stream size                 : 1.11 GiB (67%)
  39. Title                       : U - July 22
  40. Writing library             : x264 core 157 r2935 545de2f
  41. Default                     : Yes
  42. Forced                      : No
  43. Color range                 : Limited
  44. Color primaries             : BT.709
  45. Transfer characteristics    : BT.709
  46. Matrix coefficients         : BT.709
  47.  
  48. Audio #1
  49. ID                          : 2
  50. Format                      : AC-3
  51. Format/Info                 : Audio Coding 3
  52. Commercial name             : Dolby Digital
  53. Codec ID                    : A_AC3
  54. Duration                    : 1 h 32 min
  55. Bit rate mode               : Constant
  56. Bit rate                    : 640 kb/s
  57. Channel(s)                  : 6 channels
  58. Channel layout              : L R C LFE Ls Rs
  59. Sampling rate               : 48.0 kHz
  60. Frame rate                  : 31.250 FPS (1536 SPF)
  61. Bit depth                   : 16 bits
  62. Compression mode            : Lossy
  63. Stream size                 : 426 MiB (25%)
  64. Language                    : Norwegian Bokmal
  65. Service kind                : Complete Main
  66. Default                     : No
  67. Forced                      : No
  68.  
  69. Audio #2
  70. ID                          : 3
  71. Format                      : AC-3
  72. Format/Info                 : Audio Coding 3
  73. Commercial name             : Dolby Digital
  74. Codec ID                    : A_AC3
  75. Duration                    : 1 h 32 min
  76. Bit rate mode               : Constant
  77. Bit rate                    : 192 kb/s
  78. Channel(s)                  : 2 channels
  79. Channel layout              : L R
  80. Sampling rate               : 48.0 kHz
  81. Frame rate                  : 31.250 FPS (1536 SPF)
  82. Bit depth                   : 16 bits
  83. Compression mode            : Lossy
  84. Stream size                 : 128 MiB (8%)
  85. Language                    : Spanish
  86. Service kind                : Complete Main
  87. Default                     : Yes
  88. Forced                      : Yes
  89.  
  90. Text
  91. ID                          : 4
  92. Format                      : UTF-8
  93. Codec ID                    : S_TEXT/UTF8
  94. Codec ID/Info               : UTF-8 Plain Text
  95. Duration                    : 1 h 27 min
  96. Bit rate                    : 31 b/s
  97. Count of elements           : 673
  98. Stream size                 : 20.2 KiB (0%)
  99. Language                    : Spanish
  100. Default                     : Yes
  101. Forced                      : Yes
RAW Paste Data
We use cookies for various purposes including analytics. By continuing to use Pastebin, you agree to our use of cookies as described in the Cookies Policy. OK, I Understand
 
Top