Guest User

Untitled

a guest
Oct 9th, 2020
222
Never
Not a member of Pastebin yet? Sign Up, it unlocks many cool features!
  1. General
  2. Unique ID : 245517138655528275199156392135429038452 (0xB8B4E183F402821905626AC0FA85A174)
  3. Complete name : ABCD_Source.mkv
  4. Format : Matroska
  5. Format version : Version 2
  6. File size : 3.87 GiB
  7. Duration : 2 h 10 min
  8. Overall bit rate : 4 248 kb/s
  9. Encoded date : UTC 2020-10-07 19:06:21
  10. Writing application : MakeMKV v1.15.2 win(x64-release)
  11. Writing library : libmakemkv v1.15.2 (1.3.10/1.5.2) win(x64-release)
  12.  
  13. Video
  14. ID : 1
  15. ID in the original source medium : 224 (0xE0)
  16. Format : MPEG Video
  17. Format version : Version 2
  18. Format profile : Main@Main
  19. Format settings : CustomMatrix / BVOP
  20. Format settings, BVOP : Yes
  21. Format settings, Matrix : Custom
  22. Format settings, GOP : M=3, N=15
  23. Format settings, picture structure : Frame
  24. Codec ID : V_MPEG2
  25. Codec ID/Info : MPEG 1 or 2 Video
  26. Duration : 2 h 10 min
  27. Bit rate mode : Constant
  28. Bit rate : 3 738 kb/s
  29. Maximum bit rate : 5 000 kb/s
  30. Width : 720 pixels
  31. Height : 480 pixels
  32. Display aspect ratio : 16:9
  33. Frame rate mode : Constant
  34. Frame rate : 29.970 (30000/1001) FPS
  35. Standard : NTSC
  36. Color space : YUV
  37. Chroma subsampling : 4:2:0
  38. Bit depth : 8 bits
  39. Scan type : Interlaced
  40. Scan order : Top Field First
  41. Compression mode : Lossy
  42. Bits/(Pixel*Frame) : 0.361
  43. Time code of first frame : 10:00:00:00
  44. Time code source : Group of pictures header
  45. GOP, Open/Closed : Closed
  46. Stream size : 3.40 GiB (88%)
  47. Language : English
  48. Default : No
  49. Forced : No
  50. Original source medium : DVD-Video
  51.  
  52. Audio
  53. ID : 2
  54. ID in the original source medium : 189 (0xBD)128 (0x80)
  55. Format : AC-3
  56. Format/Info : Audio Coding 3
  57. Commercial name : Dolby Digital
  58. Codec ID : A_AC3
  59. Duration : 2 h 10 min
  60. Bit rate mode : Constant
  61. Bit rate : 448 kb/s
  62. Channel(s) : 6 channels
  63. Channel layout : L R C LFE Ls Rs
  64. Sampling rate : 48.0 kHz
  65. Frame rate : 31.250 FPS (1536 SPF)
  66. Compression mode : Lossy
  67. Stream size : 418 MiB (11%)
  68. Title : Surround 5.1
  69. Language : Hindi
  70. Service kind : Complete Main
  71. Default : Yes
  72. Forced : No
  73. Original source medium : DVD-Video
  74.  
  75. Text #1
  76. ID : 3
  77. ID in the original source medium : 189 (0xBD)32 (0x20)
  78. Format : VobSub
  79. Codec ID : S_VOBSUB
  80. Codec ID/Info : Picture based subtitle format used on DVDs
  81. Duration : 2 h 7 min
  82. Bit rate : 5 169 b/s
  83. Count of elements : 1374
  84. Stream size : 4.72 MiB (0%)
  85. Language : English
  86. Default : Yes
  87. Forced : No
  88. Original source medium : DVD-Video
  89.  
  90. Text #2
  91. ID : 4
  92. ID in the original source medium : 189 (0xBD)33 (0x21)
  93. Format : VobSub
  94. Codec ID : S_VOBSUB
  95. Codec ID/Info : Picture based subtitle format used on DVDs
  96. Duration : 2 h 7 min
  97. Bit rate : 4 539 b/s
  98. Count of elements : 1374
  99. Stream size : 4.14 MiB (0%)
  100. Language : Arabic
  101. Default : No
  102. Forced : No
  103. Original source medium : DVD-Video
  104.  
  105. Text #3
  106. ID : 5
  107. ID in the original source medium : 189 (0xBD)34 (0x22)
  108. Format : VobSub
  109. Codec ID : S_VOBSUB
  110. Codec ID/Info : Picture based subtitle format used on DVDs
  111. Duration : 2 h 7 min
  112. Bit rate : 4 883 b/s
  113. Count of elements : 1374
  114. Stream size : 4.46 MiB (0%)
  115. Language : French
  116. Default : No
  117. Forced : No
  118. Original source medium : DVD-Video
  119.  
  120. Text #4
  121. ID : 6
  122. ID in the original source medium : 189 (0xBD)35 (0x23)
  123. Format : VobSub
  124. Codec ID : S_VOBSUB
  125. Codec ID/Info : Picture based subtitle format used on DVDs
  126. Duration : 2 h 7 min
  127. Bit rate : 5 235 b/s
  128. Count of elements : 1374
  129. Stream size : 4.78 MiB (0%)
  130. Language : German
  131. Default : No
  132. Forced : No
  133. Original source medium : DVD-Video
  134.  
  135. Text #5
  136. ID : 7
  137. ID in the original source medium : 189 (0xBD)36 (0x24)
  138. Format : VobSub
  139. Codec ID : S_VOBSUB
  140. Codec ID/Info : Picture based subtitle format used on DVDs
  141. Duration : 2 h 7 min
  142. Bit rate : 5 054 b/s
  143. Count of elements : 1374
  144. Stream size : 4.61 MiB (0%)
  145. Language : Spanish
  146. Default : No
  147. Forced : No
  148. Original source medium : DVD-Video
  149.  
  150. Text #6
  151. ID : 8
  152. ID in the original source medium : 189 (0xBD)37 (0x25)
  153. Format : VobSub
  154. Codec ID : S_VOBSUB
  155. Codec ID/Info : Picture based subtitle format used on DVDs
  156. Duration : 2 h 7 min
  157. Bit rate : 5 261 b/s
  158. Count of elements : 1373
  159. Stream size : 4.80 MiB (0%)
  160. Language : Dutch
  161. Default : No
  162. Forced : No
  163. Original source medium : DVD-Video
  164.  
  165. Text #7
  166. ID : 9
  167. ID in the original source medium : 189 (0xBD)38 (0x26)
  168. Format : VobSub
  169. Codec ID : S_VOBSUB
  170. Codec ID/Info : Picture based subtitle format used on DVDs
  171. Duration : 2 h 7 min
  172. Bit rate : 5 265 b/s
  173. Count of elements : 1374
  174. Stream size : 4.80 MiB (0%)
  175. Language : Italian
  176. Default : No
  177. Forced : No
  178. Original source medium : DVD-Video
  179.  
  180. Text #8
  181. ID : 10
  182. ID in the original source medium : 189 (0xBD)39 (0x27)
  183. Format : VobSub
  184. Codec ID : S_VOBSUB
  185. Codec ID/Info : Picture based subtitle format used on DVDs
  186. Duration : 2 h 7 min
  187. Bit rate : 5 746 b/s
  188. Count of elements : 1372
  189. Stream size : 5.24 MiB (0%)
  190. Language : Malay
  191. Default : No
  192. Forced : No
  193. Original source medium : DVD-Video
  194.  
  195. Text #9
  196. ID : 11
  197. ID in the original source medium : 189 (0xBD)40 (0x28)
  198. Format : VobSub
  199. Codec ID : S_VOBSUB
  200. Codec ID/Info : Picture based subtitle format used on DVDs
  201. Duration : 2 h 7 min
  202. Bit rate : 5 344 b/s
  203. Count of elements : 1374
  204. Stream size : 4.88 MiB (0%)
  205. Language : Portuguese
  206. Default : No
  207. Forced : No
  208. Original source medium : DVD-Video
  209.  
  210. Text #10
  211. ID : 12
  212. ID in the original source medium : 189 (0xBD)41 (0x29)
  213. Format : VobSub
  214. Codec ID : S_VOBSUB
  215. Codec ID/Info : Picture based subtitle format used on DVDs
  216. Duration : 2 h 7 min
  217. Bit rate : 6 026 b/s
  218. Count of elements : 1375
  219. Stream size : 5.50 MiB (0%)
  220. Language : Tamil
  221. Default : No
  222. Forced : No
  223. Original source medium : DVD-Video
  224.  
  225. Text #11
  226. ID : 13
  227. ID in the original source medium : 189 (0xBD)42 (0x2A)
  228. Format : VobSub
  229. Codec ID : S_VOBSUB
  230. Codec ID/Info : Picture based subtitle format used on DVDs
  231. Duration : 2 h 7 min
  232. Bit rate : 4 819 b/s
  233. Count of elements : 1373
  234. Stream size : 4.40 MiB (0%)
  235. Language : Malayalam
  236. Default : No
  237. Forced : No
  238. Original source medium : DVD-Video
  239.  
  240. Menu
  241. 00:00:00.066 : en:Chapter 01
  242. 00:01:54.180 : en:Chapter 02
  243. 00:13:43.889 : en:Chapter 03
  244. 00:17:23.008 : en:Chapter 04
  245. 00:17:24.009 : en:Chapter 05
  246. 00:18:04.550 : en:Chapter 06
  247. 00:24:01.907 : en:Chapter 07
  248. 00:29:02.207 : en:Chapter 08
  249. 00:34:02.507 : en:Chapter 09
  250. 00:37:55.239 : en:Chapter 10
  251. 00:39:03.240 : en:Chapter 11
  252. 00:44:16.053 : en:Chapter 12
  253. 00:49:11.848 : en:Chapter 13
  254. 00:51:46.002 : en:Chapter 14
  255. 00:56:37.761 : en:Chapter 15
  256. 01:02:03.086 : en:Chapter 16
  257. 01:07:16.399 : en:Chapter 17
  258. 01:10:37.600 : en:Chapter 18
  259. 01:14:42.845 : en:Chapter 19
  260. 01:17:07.422 : en:Chapter 20
  261. 01:19:39.574 : en:Chapter 21
  262. 01:23:58.833 : en:Chapter 22
  263. 01:30:38.232 : en:Chapter 23
  264. 01:31:44.298 : en:Chapter 24
  265. 01:33:36.410 : en:Chapter 25
  266. 01:36:06.527 : en:Chapter 26
  267. 01:44:10.010 : en:Chapter 27
  268. 01:47:49.229 : en:Chapter 28
  269. 01:49:09.309 : en:Chapter 29
  270. 01:55:20.914 : en:Chapter 30
  271. 01:59:23.156 : en:Chapter 31
  272. 02:04:15.448 : en:Chapter 32
  273. 02:04:19.452 : en:Chapter 33
  274.  
  275.  
RAW Paste Data