Interfilm

Untitled

Jun 9th, 2014
203
Never
Not a member of Pastebin yet? Sign Up, it unlocks many cool features!
  1. General
  2. Unique ID : 229170168368837101230342801697499837137 (0xAC6891A781672915ABDBD0F7FDD8F2D1)
  3. Complete name : C:\Users\Андрей\Desktop\CINEMANIA\Gold.2013.Blu.Ray.1080p.CINEMANIA.mkv
  4. Format : Matroska
  5. Format version : Version 4 / Version 2
  6. File size : 4.72 GiB
  7. Duration : 1h 40mn
  8. Overall bit rate : 6 750 Kbps
  9. Movie name : Release Group CINEMANIA
  10. Encoded date : UTC 2014-06-09 20:43:11
  11. Writing application : mkvmerge v7.0.0 ('Where We Going') 64bit built on Jun 9 2014 15:16:27
  12. Writing library : libebml v1.3.0 + libmatroska v1.4.1
  13. DURATION : 01:33:49.875000000
  14. NUMBER_OF_FRAMES : 370
  15. NUMBER_OF_BYTES : 11669
  16. _STATISTICS_WRITING_APP : mkvmerge v7.0.0 ('Where We Going') 64bit built on Jun 9 2014 15:16:27
  17. _STATISTICS_WRITING_DATE_UTC : 2014-06-09 20:43:11
  18. _STATISTICS_TAGS : BPS DURATION NUMBER_OF_FRAMES NUMBER_OF_BYTES
  19.  
  20. Video
  21. ID : 1
  22. Format : AVC
  23. Format/Info : Advanced Video Codec
  24. Format profile : High@L4.1
  25. Format settings, CABAC : Yes
  26. Format settings, ReFrames : 5 frames
  27. Codec ID : V_MPEG4/ISO/AVC
  28. Duration : 1h 40mn
  29. Bit rate : 5 655 Kbps
  30. Width : 1 920 pixels
  31. Height : 800 pixels
  32. Display aspect ratio : 2.40:1
  33. Frame rate mode : Constant
  34. Frame rate : 24.000 fps
  35. Color space : YUV
  36. Chroma subsampling : 4:2:0
  37. Bit depth : 8 bits
  38. Scan type : Progressive
  39. Bits/(Pixel*Frame) : 0.153
  40. Stream size : 3.96 GiB (84%)
  41. Title : Release Group CINEMANIA
  42. Writing library : x264 core 142 r2389 956c8d8
  43. Encoding settings : cabac=1 / ref=5 / deblock=1:0:0 / analyse=0x3:0x113 / me=umh / subme=7 / psy=1 / psy_rd=1.00:0.00 / mixed_ref=1 / me_range=16 / chroma_me=1 / trellis=1 / 8x8dct=1 / cqm=0 / deadzone=21,11 / fast_pskip=0 / chroma_qp_offset=-2 / threads=6 / lookahead_threads=1 / sliced_threads=0 / nr=0 / decimate=1 / interlaced=0 / bluray_compat=0 / constrained_intra=0 / bframes=3 / b_pyramid=2 / b_adapt=1 / b_bias=0 / direct=1 / weightb=1 / open_gop=0 / weightp=2 / keyint=250 / keyint_min=24 / scenecut=40 / intra_refresh=0 / rc_lookahead=40 / rc=crf / mbtree=1 / crf=20.0 / qcomp=0.60 / qpmin=0 / qpmax=69 / qpstep=4 / ip_ratio=1.40 / aq=1:1.00
  44. Default : No
  45. Forced : No
  46. DURATION : 01:40:07.584000000
  47. NUMBER_OF_FRAMES : 144182
  48. NUMBER_OF_BYTES : 4345856702
  49. _STATISTICS_WRITING_APP : mkvmerge v7.0.0 ('Where We Going') 64bit built on Jun 9 2014 15:16:27
  50. _STATISTICS_WRITING_DATE_UTC : 2014-06-09 20:43:11
  51. _STATISTICS_TAGS : BPS DURATION NUMBER_OF_FRAMES NUMBER_OF_BYTES
  52.  
  53. Audio #1
  54. ID : 2
  55. Format : AC-3
  56. Format/Info : Audio Coding 3
  57. Mode extension : CM (complete main)
  58. Format settings, Endianness : Big
  59. Codec ID : A_AC3
  60. Duration : 1h 40mn
  61. Bit rate mode : Constant
  62. Bit rate : 192 Kbps
  63. Channel(s) : 2 channels
  64. Channel positions : Front: L R
  65. Sampling rate : 48.0 KHz
  66. Bit depth : 16 bits
  67. Compression mode : Lossy
  68. Stream size : 138 MiB (3%)
  69. Title : Чистый Звук
  70. Language : Russian
  71. Default : Yes
  72. Forced : Yes
  73.  
  74. Audio #2
  75. ID : 3
  76. Format : DTS
  77. Format/Info : Digital Theater Systems
  78. Mode : 16
  79. Format settings, Endianness : Big
  80. Codec ID : A_DTS
  81. Duration : 1h 40mn
  82. Bit rate mode : Constant
  83. Bit rate : 768 Kbps
  84. Channel(s) : 6 channels
  85. Channel positions : Front: L C R, Side: L R, LFE
  86. Sampling rate : 48.0 KHz
  87. Bit depth : 24 bits
  88. Compression mode : Lossy
  89. Delay relative to video : 11ms
  90. Stream size : 550 MiB (11%)
  91. Language : German
  92. Default : No
  93. Forced : No
  94.  
  95. Text
  96. ID : 4
  97. Format : UTF-8
  98. Codec ID : S_TEXT/UTF8
  99. Codec ID/Info : UTF-8 Plain Text
  100. Language : English
  101. Default : No
  102. Forced : No
RAW Paste Data