Advertisement
pog42

[sam] Sword Art Online (BD 1080p HEVC x265 10-bit FLAC) [Dual-Audio]

Sep 22nd, 2022
212
0
Never
Not a member of Pastebin yet? Sign Up, it unlocks many cool features!
text 8.74 KB | None | 0 0
  1. General
  2. Unique ID : 247961172702216073472375549421922628808 (0xBA8B95B285422D1C08A342BFC54D34C8)
  3. Complete name : [sam] Sword Art Online - 01 [BD 1080p FLAC] [D04B3CA3].mkv
  4. Format : Matroska
  5. Format version : Version 4
  6. File size : 2.64 GiB
  7. Duration : 23 min 40 s
  8. Overall bit rate mode : Variable
  9. Overall bit rate : 16.0 Mb/s
  10. Movie name : Sword Art Online - 01 - The World of Swords
  11. Encoded date : UTC 2022-09-22 13:34:58
  12. Writing application : mkvmerge v70.0.0 ('Caught A Lite Sneeze') 64-bit
  13. Writing library : libebml v1.4.2 + libmatroska v1.6.4
  14. Attachments : Comfortaa-Regular.ttf / LT.TTF / Montara-Gothic_0.otf / Montara-Italic_0.otf / QuaySansMdITCTT.ttf / raavi.ttf / raavib.ttf / SAO_Sign.ttf / wscsnrg.TTF / Champagne & Limousines.ttf / IwaOMinPro-Hv-En.ttf / LinLibertine_DR.ttf
  15.  
  16. Video
  17. ID : 1
  18. Format : HEVC
  19. Format/Info : High Efficiency Video Coding
  20. Format profile : Main 10@L4@Main
  21. Codec ID : V_MPEGH/ISO/HEVC
  22. Duration : 23 min 40 s
  23. Bit rate : 14.5 Mb/s
  24. Width : 1 920 pixels
  25. Height : 1 080 pixels
  26. Display aspect ratio : 16:9
  27. Frame rate mode : Constant
  28. Frame rate : 23.976 (24000/1001) FPS
  29. Color space : YUV
  30. Chroma subsampling : 4:2:0
  31. Bit depth : 10 bits
  32. Bits/(Pixel*Frame) : 0.292
  33. Stream size : 2.40 GiB (91%)
  34. Title : BDrip by sam
  35. Writing library : x265 3.5+20-4c4aee0bc:[DJATOM's Mod][Windows][GCC 10.2.1][64 bit] 10bit
  36. Encoding settings : cpuid=1111039 / frame-threads=4 / numa-pools=16 / wpp / no-pmode / no-pme / no-psnr / no-ssim / log-level=2 / csv / csv-log-level=0 / input-csp=1 / input-res=1920x1080 / interlace=0 / total-frames=34046 / level-idc=0 / high-tier=1 / uhd-bd=0 / ref=5 / no-allow-non-conformance / no-repeat-headers / annexb / no-aud / no-hrd / info / hash=0 / no-temporal-layers / no-open-gop / min-keyint=23 / keyint=240 / gop-lookahead=0 / bframes=12 / b-adapt=2 / b-pyramid / bframe-bias=0 / rc-lookahead=60 / lookahead-slices=0 / scenecut=40 / hist-scenecut=0 / radl=0 / no-splice / no-intra-refresh / ctu=64 / min-cu-size=8 / no-rect / no-amp / max-tu-size=32 / tu-inter-depth=2 / tu-intra-depth=2 / limit-tu=0 / rdoq-level=2 / dynamic-rd=0.00 / no-ssim-rd / signhide / no-tskip / nr-intra=0 / nr-inter=0 / no-constrained-intra / no-strong-intra-smoothing / max-merge=5 / limit-refs=1 / no-limit-modes / me=3 / subme=5 / merange=57 / temporal-mvp / no-frame-dup / no-hme / weightp / weightb / no-analyze-src-pics / deblock=-2:-2 / no-sao / no-sao-non-deblock / rd=3 / selective-sao=0 / no-early-skip / no-rskip / no-fast-intra / no-tskip-fast / no-cu-lossless / b-intra / no-splitrd-skip / rdpenalty=0 / psy-rd=2.00 / psy-rdoq=2.20 / no-rd-refine / no-lossless / cbqpoffs=-2 / crqpoffs=-2 / rc=crf / crf=14.0 / qcomp=0.72 / qpstep=4 / stats-write=0 / stats-read=0 / ipratio=1.40 / pbratio=1.30 / aq-mode=3 / aq-strength=0.85 / no-cutree / zone-count=1 / zones: / start-frame=31313 / end-frame=33469 / bitrate-factor=1.200000 / no-strict-cbr / qg-size=32 / no-rc-grain / qpmax=69 / qpmin=0 / no-const-vbv / sar=1 / overscan=0 / videoformat=5 / range=0 / colorprim=1 / transfer=1 / colormatrix=1 / chromaloc=0 / display-window=0 / cll=0,0 / min-luma=64 / max-luma=940 / log2-max-poc-lsb=8 / vui-timing-info / vui-hrd-info / slices=1 / no-opt-qp-pps / no-opt-ref-list-length-pps / no-multi-pass-opt-rps / scenecut-bias=0.05 / hist-threshold=0.03 / no-opt-cu-delta-qp / no-aq-motion / no-hdr10 / no-hdr10-opt / no-dhdr10-opt / no-idr-recovery-sei / analysis-reuse-level=0 / analysis-save-reuse-level=0 / analysis-load-reuse-level=0 / scale-factor=0 / refine-intra=0 / refine-inter=0 / refine-mv=1 / refine-ctu-distortion=0 / no-limit-sao / ctu-info=0 / no-lowpass-dct / refine-analysis-type=0 / copy-pic=1 / max-ausize-factor=1.0 / no-dynamic-refine / no-single-sei / no-hevc-aq / no-svt / no-field / qp-adaptation-range=1.00 / scenecut-aware-qp=0conformance-window-offsets / right=0 / bottom=0 / decoder-max-rate=0 / no-vbv-live-multi-pass
  37. Language : Japanese
  38. Default : Yes
  39. Forced : No
  40. Color range : Limited
  41. Color primaries : BT.709
  42. Transfer characteristics : BT.709
  43. Matrix coefficients : BT.709
  44.  
  45. Audio #1
  46. ID : 2
  47. Format : FLAC
  48. Format/Info : Free Lossless Audio Codec
  49. Codec ID : A_FLAC
  50. Duration : 23 min 40 s
  51. Bit rate mode : Variable
  52. Bit rate : 680 kb/s
  53. Channel(s) : 2 channels
  54. Channel layout : L R
  55. Sampling rate : 48.0 kHz
  56. Frame rate : 11.719 FPS (4096 SPF)
  57. Bit depth : 16 bits
  58. Compression mode : Lossless
  59. Stream size : 115 MiB (4%)
  60. Title : FLAC 2.0
  61. Writing library : libFLAC 1.3.3 (UTC 2019-08-04)
  62. Language : Japanese
  63. Default : Yes
  64. Forced : No
  65.  
  66. Audio #2
  67. ID : 3
  68. Format : FLAC
  69. Format/Info : Free Lossless Audio Codec
  70. Codec ID : A_FLAC
  71. Duration : 23 min 40 s
  72. Bit rate mode : Variable
  73. Bit rate : 712 kb/s
  74. Channel(s) : 2 channels
  75. Channel layout : L R
  76. Sampling rate : 48.0 kHz
  77. Frame rate : 11.719 FPS (4096 SPF)
  78. Bit depth : 16 bits
  79. Compression mode : Lossless
  80. Stream size : 121 MiB (4%)
  81. Title : FLAC 2.0
  82. Writing library : libFLAC 1.3.3 (UTC 2019-08-04)
  83. Language : English
  84. Default : No
  85. Forced : No
  86.  
  87. Text #1
  88. ID : 4
  89. Format : ASS
  90. Codec ID : S_TEXT/ASS
  91. Codec ID/Info : Advanced Sub Station Alpha
  92. Duration : 23 min 35 s
  93. Bit rate : 1 305 b/s
  94. Count of elements : 2779
  95. Compression mode : Lossless
  96. Stream size : 226 KiB (0%)
  97. Title : Full Subtitles [Shio-freeka]
  98. Language : English
  99. Default : Yes
  100. Forced : No
  101.  
  102. Text #2
  103. ID : 5
  104. Format : ASS
  105. Codec ID : S_TEXT/ASS
  106. Codec ID/Info : Advanced Sub Station Alpha
  107. Duration : 23 min 35 s
  108. Bit rate : 1 197 b/s
  109. Count of elements : 2453
  110. Compression mode : Lossless
  111. Stream size : 207 KiB (0%)
  112. Title : Signs/Songs [Shio-freeka]
  113. Language : English
  114. Default : No
  115. Forced : Yes
  116.  
  117. Menu
  118. 00:00:00.000 : ja:Prologue
  119. 00:02:26.021 : ja:Part A
  120. 00:11:02.996 : ja:Part B
  121. 00:21:46.013 : ja:Opening
  122. 00:23:15.978 : ja:Epilogue
  123. 00:23:34.997 : ja:Preview
Advertisement
Add Comment
Please, Sign In to add comment
Advertisement