SHARE
TWEET

Untitled

a guest Nov 16th, 2019 80 Never
Not a member of Pastebin yet? Sign Up, it unlocks many cool features!
  1. General
  2. Unique ID                                : 40401429022490827729778929984080127159 (0x1E65083DEF39A20C449E5F48C2A324B7)
  3. Complete name                            : /Volumes/Media/Anime/Null Peta/[anorak] Null Peta - 05 (WEB 864p)[FCF82928].mkv
  4. Format                                   : Matroska
  5. Format version                           : Version 4
  6. File size                                : 106 MiB
  7. Duration                                 : 5mn 50s
  8. Overall bit rate                         : 2 544 Kbps
  9. Movie name                               : [anorak] Null Peta - 05
  10. Encoded date                             : UTC 2019-11-17 01:55:43
  11. Writing application                      : mkvmerge v40.0.0 ('Old Town Road + Pony') 64-bit
  12. Writing library                          : libebml v1.3.9 + libmatroska v1.5.2
  13. Attachments                              : Cabin-PL-Bold.ttf / Cabin-PL-BoldItalic.ttf / CFRiseofNations.ttf / Impact.ttf / Rain Brush Dafont.ttf / ヒラギノ角ゴシック W7.ttc
  14.  
  15. Video
  16. ID                                       : 1
  17. Format                                   : AVC
  18. Format/Info                              : Advanced Video Codec
  19. Format profile                           : High 4:4:4 Predictive@L5
  20. Format settings                          : CABAC / 16 Ref Frames
  21. Format settings, CABAC                   : Yes
  22. Format settings, ReFrames                : 16 frames
  23. Codec ID                                 : V_MPEG4/ISO/AVC
  24. Duration                                 : 5mn 50s
  25. Bit rate                                 : 2 318 Kbps
  26. Width                                    : 1 536 pixels
  27. Height                                   : 864 pixels
  28. Display aspect ratio                     : 16:9
  29. Frame rate mode                          : Constant
  30. Frame rate                               : 23.976 (24000/1001) fps
  31. Chroma subsampling                       : 4:4:4
  32. Bit depth                                : 10 bits
  33. Scan type                                : Progressive
  34. Bits/(Pixel*Frame)                       : 0.073
  35. Stream size                              : 96.7 MiB (91%)
  36. Writing library                          : x264 core 155 r2917 0a84d98
  37. Encoding settings                        : cabac=1 / ref=16 / deblock=1:1:1 / analyse=0x1:0x131 / me=umh / subme=10 / psy=1 / psy_rd=0.40:0.00 / mixed_ref=1 / me_range=24 / chroma_me=1 / trellis=2 / 8x8dct=0 / cqm=0 / deadzone=21,11 / fast_pskip=1 / chroma_qp_offset=4 / threads=18 / lookahead_threads=4 / sliced_threads=0 / nr=0 / decimate=1 / interlaced=0 / bluray_compat=0 / constrained_intra=0 / bframes=10 / b_pyramid=2 / b_adapt=2 / b_bias=0 / direct=3 / weightb=1 / open_gop=0 / weightp=2 / keyint=250 / keyint_min=23 / scenecut=40 / intra_refresh=0 / rc_lookahead=60 / rc=crf / mbtree=1 / crf=15.0 / qcomp=0.60 / qpmin=0 / qpmax=81 / qpstep=4 / ip_ratio=1.40 / aq=1:0.60
  38. Language                                 : Japanese
  39. Default                                  : Yes
  40. Forced                                   : No
  41.  
  42. Audio
  43. ID                                       : 2
  44. Format                                   : AAC LC
  45. Format/Info                              : Advanced Audio Codec Low Complexity
  46. Codec ID                                 : A_AAC-2
  47. Duration                                 : 5mn 50s
  48. Bit rate                                 : 128 Kbps
  49. Channel(s)                               : 2 channels
  50. Channel layout                           : L R
  51. Sampling rate                            : 44.1 KHz
  52. Frame rate                               : 43.066 fps (1024 SPF)
  53. Compression mode                         : Lossy
  54. Stream size                              : 5.34 MiB (5%)
  55. Language                                 : Japanese
  56. Default                                  : Yes
  57. Forced                                   : No
  58.  
  59. Text
  60. ID                                       : 3
  61. Format                                   : ASS
  62. Codec ID                                 : S_TEXT/ASS
  63. Codec ID/Info                            : Advanced Sub Station Alpha
  64. Duration                                 : 5mn 34s
  65. Bit rate                                 : 1 896 bps
  66. Count of elements                        : 521
  67. Compression mode                         : Lossless
  68. Stream size                              : 77.5 KiB (0%)
  69. Title                                    : English [anorak]
  70. Language                                 : English
  71. Default                                  : Yes
  72. Forced                                   : No
  73.  
  74. Menu
  75. 00:00:00.000                             : en:Opening
  76. 00:01:01.979                             : en:Main
RAW Paste Data
We use cookies for various purposes including analytics. By continuing to use Pastebin, you agree to our use of cookies as described in the Cookies Policy. OK, I Understand
 
Top