srsfknbznsinhere

[Commie] Battery - 03v2 [C3DBA1E3].mkv

Aug 20th, 2016
25
Never
Not a member of Pastebin yet? Sign Up, it unlocks many cool features!
  1. General
  2. Format : Matroska
  3. Format version : Version 4 / Version 2
  4. File size : 161 MiB
  5. Duration : 22mn 54s
  6. Overall bit rate : 982 Kbps
  7. Encoded date : UTC 2016-08-06 01:28:52
  8. Writing application : mkvmerge v9.3.1 ('Mask Machine') 64bit
  9. Writing library : libebml v1.3.4 + libmatroska v1.4.5
  10. Attachements : iskpota.ttf / Jayneprint.ttf / pala.ttf / STONESANSSTD-SEMIBOLD.OTF / STONESANSSTD-SEMIBOLDITALIC.OTF / ImmiFiveOFiveStd.otf
  11.  
  12. Video
  13. ID : 1
  14. Format : AVC
  15. Format/Info : Advanced Video Codec
  16. Format profile : High 10@L5
  17. Format settings, CABAC : Yes
  18. Format settings, ReFrames : 16 frames
  19. Codec ID : V_MPEG4/ISO/AVC
  20. Duration : 22mn 54s
  21. Bit rate : 739 Kbps
  22. Width : 1 280 pixels
  23. Height : 720 pixels
  24. Display aspect ratio : 16:9
  25. Frame rate mode : Constant
  26. Frame rate : 23.976 fps
  27. Color space : YUV
  28. Chroma subsampling : 4:2:0
  29. Bit depth : 10 bits
  30. Scan type : Progressive
  31. Bits/(Pixel*Frame) : 0.033
  32. Stream size : 121 MiB (75%)
  33. Writing library : x264 core 148 r2705+54 9f484c1 t_mod_Custom [10-bit@all X86_64]
  34. Encoding settings : cabac=1 / ref=16 / deblock=1:0:0 / analyse=0x3:0x133 / me=umh / subme=10 / psy=1 / fade_compensate=0.70 / psy_rd=0.60:0.15 / mixed_ref=1 / me_range=24 / chroma_me=1 / trellis=2 / 8x8dct=1 / cqm=0 / deadzone=21,11 / fast_pskip=1 / chroma_qp_offset=-3 / threads=12 / lookahead_threads=3 / sliced_threads=0 / nr=0 / decimate=1 / interlaced=0 / bluray_compat=0 / constrained_intra=0 / fgo=0 / bframes=10 / b_pyramid=2 / b_adapt=2 / b_bias=0 / direct=3 / weightb=1 / open_gop=0 / weightp=2 / keyint=250 / keyint_min=23 / scenecut=40 / intra_refresh=0 / rc_lookahead=60 / rc=crf / mbtree=1 / crf=18.0000 / qcomp=0.70 / qpmin=0:0:0 / qpmax=81:81:81 / qpstep=4 / ip_ratio=1.40 / aq=3:0.80 / aq-sensitivity=10.00 / aq-factor=1.00:1.00:1.00 / aq2=0 / aq3=0
  35. Language : English
  36. Default : Yes
  37. Forced : No
  38.  
  39. Audio
  40. ID : 2
  41. Format : E-AC-3
  42. Format/Info : Audio Coding 3
  43. Format settings, Endianness : Big
  44. Codec ID : A_EAC3
  45. Duration : 22mn 54s
  46. Bit rate mode : Constant
  47. Bit rate : 224 Kbps
  48. Channel(s) : 2 channels
  49. Channel positions : Front: L R
  50. Sampling rate : 48.0 KHz
  51. Compression mode : Lossy
  52. Stream size : 36.7 MiB (23%)
  53. Language : Japanese
  54. Default : Yes
  55. Forced : No
  56.  
  57. Text
  58. ID : 3
  59. Format : ASS
  60. Codec ID : S_TEXT/ASS
  61. Codec ID/Info : Advanced Sub Station Alpha
  62. Compression mode : Lossless
  63. Language : English
  64. Default : Yes
  65. Forced : No
  66.  
  67. Menu
  68. 00:00:00.033 : en:Intro
  69. 00:01:52.080 : en:OP
  70. 00:03:21.970 : en:Episode
  71. 00:21:24.930 : en:ED
RAW Paste Data