G2A Many GEOs
SHARE
TWEET

Interstellar_REMUX

iMN0 Jun 17th, 2017 775 Never
Not a member of Pastebin yet? Sign Up, it unlocks many cool features!
  1. General
  2. Unique ID                                : 244971029206275325899471586760770823727 (0xB84BB43DA43074FEA95AD0BF64D1A62F)
  3. Format                                   : Matroska
  4. Format version                           : Version 4 / Version 2
  5. File size                                : 33.0 GiB
  6. Duration                                 : 2 h 49 min
  7. Overall bit rate mode                    : Variable
  8. Overall bit rate                         : 27.9 Mb/s
  9. Encoded date                             : UTC 2017-06-17 16:42:35
  10. Writing application                      : mkvmerge v10.0.0 ('To Drown In You') 64bit
  11. Writing library                          : libebml v1.3.4 + libmatroska v1.4.5
  12.  
  13. Video
  14. ID                                       : 1
  15. Format                                   : AVC
  16. Format/Info                              : Advanced Video Codec
  17. Format profile                           : High@L4.1
  18. Format settings, CABAC                   : Yes
  19. Format settings, ReFrames                : 2 frames
  20. Format settings, GOP                     : M=1, N=10
  21. Codec ID                                 : V_MPEG4/ISO/AVC
  22. Duration                                 : 2 h 49 min
  23. Bit rate mode                            : Variable
  24. Bit rate                                 : 24.2 Mb/s
  25. Width                                    : 1 920 pixels
  26. Height                                   : 1 080 pixels
  27. Display aspect ratio                     : 16:9
  28. Frame rate mode                          : Constant
  29. Frame rate                               : 23.976 (24000/1001) FPS
  30. Color space                              : YUV
  31. Chroma subsampling                       : 4:2:0
  32. Bit depth                                : 8 bits
  33. Scan type                                : Progressive
  34. Bits/(Pixel*Frame)                       : 0.487
  35. Stream size                              : 28.6 GiB (87%)
  36. Language                                 : English
  37. Default                                  : Yes
  38. Forced                                   : Yes
  39.  
  40. Audio
  41. ID                                       : 2
  42. Format                                   : DTS
  43. Format/Info                              : Digital Theater Systems
  44. Format profile                           : MA / Core
  45. Mode                                     : 16
  46. Format settings, Endianness              : Big
  47. Codec ID                                 : A_DTS
  48. Duration                                 : 2 h 49 min
  49. Bit rate mode                            : Variable / Constant
  50. Bit rate                                 : 3 693 kb/s / 1 509 kb/s
  51. Channel(s)                               : 6 channels
  52. Channel positions                        : Front: L C R, Side: L R, LFE
  53. Sampling rate                            : 48.0 kHz
  54. Frame rate                               : 93.750 FPS (512 spf)
  55. Bit depth                                : 24 bits
  56. Compression mode                         : Lossless / Lossy
  57. Stream size                              : 4.36 GiB (13%)
  58. Language                                 : English
  59. Default                                  : Yes
  60. Forced                                   : No
  61.  
  62. Text
  63. ID                                       : 3
  64. Format                                   : PGS
  65. Muxing mode                              : zlib
  66. Codec ID                                 : S_HDMV/PGS
  67. Codec ID/Info                            : Picture based subtitle format used on BDs/HD-DVDs
  68. Duration                                 : 2 h 47 min
  69. Bit rate                                 : 14.8 kb/s
  70. Count of elements                        : 4194
  71. Stream size                              : 17.7 MiB (0%)
  72. Language                                 : English
  73. Default                                  : No
  74. Forced                                   : No
  75.  
  76. Menu
  77. 00:00:00.000                             : en:00:00:00.000
  78. 00:09:35.491                             : en:00:09:35.491
  79. 00:17:12.322                             : en:00:17:12.322
  80. 00:25:00.749                             : en:00:25:00.749
  81. 00:35:45.393                             : en:00:35:45.393
  82. 00:42:16.867                             : en:00:42:16.867
  83. 00:50:19.891                             : en:00:50:19.891
  84. 00:54:48.076                             : en:00:54:48.076
  85. 00:58:59.702                             : en:00:58:59.702
  86. 01:06:15.012                             : en:01:06:15.012
  87. 01:17:28.185                             : en:01:17:28.185
  88. 01:25:32.001                             : en:01:25:32.001
  89. 01:34:31.999                             : en:01:34:31.999
  90. 01:46:14.701                             : en:01:46:14.701
  91. 01:55:34.552                             : en:01:55:34.552
  92. 02:02:14.368                             : en:02:02:14.368
  93. 02:12:56.843                             : en:02:12:56.843
  94. 02:20:53.820                             : en:02:20:53.820
  95. 02:35:12.094                             : en:02:35:12.094
  96. 02:43:59.830                             : en:02:43:59.830
RAW Paste Data
Ledger Nano X - The secure hardware wallet
We use cookies for various purposes including analytics. By continuing to use Pastebin, you agree to our use of cookies as described in the Cookies Policy. OK, I Understand
Top