HYBRID_BEING

[GJM] Masou Gakuen HxH - 02 [66E62256].mkv

Jul 16th, 2016
161
Never
Not a member of Pastebin yet? Sign Up, it unlocks many cool features!
  1. General
  2. Unique ID : 207469442034117523870295204255651890211 (0x9C15293D9468338F9A448EE36E088423)
  3. Complete name : [GJM] Masou Gakuen HxH - 02 [66E62256].mkv
  4. Format : Matroska
  5. Format version : Version 4 / Version 2
  6. File size : 446 MiB
  7. Duration : 23 min
  8. Overall bit rate : 2 636 kb/s
  9. Encoded date : UTC 2016-07-15 05:57:32
  10. Writing application : mkvmerge v9.3.1 ('Mask Machine') 32bit
  11. Writing library : libebml v1.3.4 + libmatroska v1.4.5
  12. Attachments : CentraleSansRnd-Medium.ttf / Chapaza.ttf / CoreSansNR65-Bold.ttf / FolkPro-Bold.otf / Sica-ExtraBold.ttf / Aller Loose Bold Italic.ttf / Aller Loose Bold.ttf / AllerLoose.ttf / Arista2.0.ttf / BebasNeue.otf
  13.  
  14. Video
  15. ID : 1
  16. Format : AVC
  17. Format/Info : Advanced Video Codec
  18. Format profile : High 4:4:4 Predictive@L5
  19. Format settings, CABAC : Yes
  20. Format settings, ReFrames : 16 frames
  21. Codec ID : V_MPEG4/ISO/AVC
  22. Duration : 23 min
  23. Bit rate : 2 479 kb/s
  24. Width : 1 280 pixels
  25. Height : 720 pixels
  26. Display aspect ratio : 16:9
  27. Frame rate mode : Constant
  28. Frame rate : 23.976 (24000/1001) FPS
  29. Color space : YUV
  30. Chroma subsampling : 4:4:4
  31. Bit depth : 10 bits
  32. Scan type : Progressive
  33. Bits/(Pixel*Frame) : 0.112
  34. Stream size : 420 MiB (94%)
  35. Writing library : x264 core 142 r2431+42 c69a006 tMod [10-bit@all X86_64]
  36. Encoding settings : cabac=1 / ref=16 / deblock=1:-1:-1 / analyse=0x3:0x133 / me=umh / subme=10 / psy=1 / fade_compensate=0.60 / psy_rd=0.75:0.02 / mixed_ref=1 / me_range=32 / chroma_me=1 / trellis=2 / 8x8dct=1 / cqm=0 / deadzone=21,11 / fast_pskip=1 / chroma_qp_offset=-1 / threads=18 / lookahead_threads=3 / sliced_threads=0 / nr=0 / decimate=1 / interlaced=0 / bluray_compat=0 / stitchable=1 / constrained_intra=0 / fgo=0 / bframes=8 / b_pyramid=2 / b_adapt=2 / b_bias=0 / direct=3 / weightb=1 / open_gop=0 / weightp=2 / keyint=250 / keyint_min=23 / scenecut=40 / intra_refresh=0 / rc_lookahead=60 / rc=crf / mbtree=1 / crf=18.0000 / qcomp=0.75 / qpmin=0:0:0 / qpmax=81:81:81 / qpstep=4 / ip_ratio=1.40 / aq=3:0.88 / aq-sensitivity=10.00 / aq-factor=1.00:1.00:1.00 / aq2=0 / aq3=0
  37. Language : Japanese
  38. Default : Yes
  39. Forced : No
  40. Color range : Limited
  41. Matrix coefficients : BT.709
  42.  
  43. Audio
  44. ID : 2
  45. Format : AAC
  46. Format/Info : Advanced Audio Codec
  47. Format profile : LC
  48. Codec ID : A_AAC
  49. Duration : 23 min
  50. Bit rate : 128 kb/s
  51. Channel(s) : 2 channels
  52. Channel positions : Front: L R
  53. Sampling rate : 44.1 kHz
  54. Frame rate : 43.066 FPS (1024 spf)
  55. Compression mode : Lossy
  56. Stream size : 21.7 MiB (5%)
  57. Language : Japanese
  58. Default : Yes
  59. Forced : No
  60.  
  61. Text
  62. ID : 3
  63. Format : ASS
  64. Codec ID : S_TEXT/ASS
  65. Codec ID/Info : Advanced Sub Station Alpha
  66. Duration : 23 min
  67. Bit rate : 151 b/s
  68. Count of elements : 416
  69. Compression mode : Lossless
  70. Stream size : 26.3 KiB (0%)
  71. Title : No Honorifics
  72. Language : English
  73. Default : Yes
  74. Forced : No
  75.  
  76. Menu
  77. 00:00:00.000 : en:Intro
  78. 00:03:16.029 : en:OP
  79. 00:04:46.077 : en:Part A
  80. 00:10:30.046 : en:Part B
  81. 00:21:54.980 : en:ED
  82. 00:23:24.987 : en:Preview
RAW Paste Data