SHARE
TWEET

The.Avengers.2012.UHD.BluRay.2160p.TrueHD.Atmos.7.1.HEVC.REMUX-FraMeSToR.mkv

iMN0 Aug 6th, 2018 342 Never
Not a member of Pastebin yet? Sign Up, it unlocks many cool features!
  1. General
  2. Unique ID                                : 291139211593439519380526966842278527336 (0xDB075F600C02D68C40AB76A5203BC168)
  3. Complete name                            : The.Avengers.2012.UHD.BluRay.2160p.TrueHD.Atmos.7.1.HEVC.REMUX-FraMeSToR.mkv
  4. Format                                   : Matroska
  5. Format version                           : Version 4 / Version 2
  6. File size                                : 49.1 GiB
  7. Duration                                 : 2h 22mn
  8. Overall bit rate mode                    : Variable
  9. Overall bit rate                         : 49.1 Mbps
  10. Movie name                               : The Avengers 4K
  11. Encoded date                             : UTC 2018-08-07 01:55:02
  12. Writing application                      : mkvmerge v25.0.0 ('Prog Noir') 64-bit
  13. Writing library                          : libebml v1.3.6 + libmatroska v1.4.9
  14.  
  15. Video
  16. ID                                       : 1
  17. Format                                   : HEVC
  18. Format/Info                              : High Efficiency Video Coding
  19. Format profile                           : Main 10@L5.1@High
  20. Codec ID                                 : V_MPEGH/ISO/HEVC
  21. Duration                                 : 2h 22mn
  22. Bit rate                                 : 43.0 Mbps
  23. Width                                    : 3 840 pixels
  24. Height                                   : 2 160 pixels
  25. Display aspect ratio                     : 16:9
  26. Frame rate mode                          : Constant
  27. Frame rate                               : 23.976 (24000/1001) fps
  28. Color space                              : YUV
  29. Chroma subsampling                       : 4:2:0
  30. Bit depth                                : 10 bits
  31. Bits/(Pixel*Frame)                       : 0.216
  32. Stream size                              : 42.9 GiB (87%)
  33. Default                                  : Yes
  34. Forced                                   : No
  35. Color range                              : Limited
  36. Color primaries                          : BT.2020
  37. Matrix coefficients                      : BT.2020 non-constant
  38.  
  39. Audio #1
  40. ID                                       : 2
  41. Format                                   : Atmos / TrueHD
  42. Codec ID                                 : A_TRUEHD
  43. Duration                                 : 2h 22mn
  44. Bit rate mode                            : Variable
  45. Bit rate                                 : 4 971 Kbps
  46. Maximum bit rate                         : 7 056 Kbps
  47. Channel(s)                               : Object Based / 8 channels
  48. Channel positions                        : Object Based / Front: L C R, Side: L R, Back: L R, LFE
  49. Sampling rate                            :  / 48.0 KHz
  50. Frame rate                               : 1 200.000 fps (40 spf)
  51. Compression mode                         : Lossless
  52. Stream size                              : 4.96 GiB (10%)
  53. Title                                    : TrueHD Atmos 7.1
  54. Language                                 : English
  55. Default                                  : Yes
  56. Forced                                   : No
  57.  
  58. Audio #2
  59. ID                                       : 3
  60. Format                                   : AC-3
  61. Format/Info                              : Audio Coding 3
  62. Mode extension                           : CM (complete main)
  63. Format settings, Endianness              : Big
  64. Codec ID                                 : A_AC3
  65. Duration                                 : 2h 22mn
  66. Bit rate mode                            : Constant
  67. Bit rate                                 : 640 Kbps
  68. Channel(s)                               : 6 channels
  69. Channel positions                        : Front: L C R, Side: L R, LFE
  70. Sampling rate                            : 48.0 KHz
  71. Frame rate                               : 31.250 fps (1536 spf)
  72. Compression mode                         : Lossy
  73. Stream size                              : 654 MiB (1%)
  74. Title                                    : AC3 5.1
  75. Language                                 : English
  76. Default                                  : No
  77. Forced                                   : No
  78.  
  79. Audio #3
  80. ID                                       : 4
  81. Format                                   : AC-3
  82. Format/Info                              : Audio Coding 3
  83. Mode extension                           : CM (complete main)
  84. Format settings, Endianness              : Big
  85. Codec ID                                 : A_AC3
  86. Duration                                 : 2h 22mn
  87. Bit rate mode                            : Constant
  88. Bit rate                                 : 320 Kbps
  89. Channel(s)                               : 2 channels
  90. Channel positions                        : Front: L R
  91. Sampling rate                            : 48.0 KHz
  92. Frame rate                               : 31.250 fps (1536 spf)
  93. Compression mode                         : Lossy
  94. Delay relative to video                  : 834ms
  95. Stream size                              : 327 MiB (1%)
  96. Title                                    : Commentary by Director Joss Whedon
  97. Language                                 : English
  98. Default                                  : No
  99. Forced                                   : No
  100.  
  101. Text #1
  102. ID                                       : 5
  103. Format                                   : PGS
  104. Codec ID                                 : S_HDMV/PGS
  105. Codec ID/Info                            : Picture based subtitle format used on BDs/HD-DVDs
  106. Duration                                 : 3mn 46s
  107. Bit rate                                 : 16.7 Kbps
  108. Count of elements                        : 62
  109. Stream size                              : 462 KiB (0%)
  110. Title                                    : English (Forced only)
  111. Language                                 : English
  112. Default                                  : Yes
  113. Forced                                   : Yes
  114.  
  115. Text #2
  116. ID                                       : 6
  117. Format                                   : PGS
  118. Codec ID                                 : S_HDMV/PGS
  119. Codec ID/Info                            : Picture based subtitle format used on BDs/HD-DVDs
  120. Duration                                 : 2h 15mn
  121. Bit rate                                 : 38.5 Kbps
  122. Count of elements                        : 4086
  123. Stream size                              : 37.3 MiB (0%)
  124. Title                                    : English (SDH)
  125. Language                                 : English
  126. Default                                  : No
  127. Forced                                   : No
  128.  
  129. Text #3
  130. ID                                       : 7
  131. Format                                   : PGS
  132. Codec ID                                 : S_HDMV/PGS
  133. Codec ID/Info                            : Picture based subtitle format used on BDs/HD-DVDs
  134. Duration                                 : 2h 15mn
  135. Bit rate                                 : 20.7 Kbps
  136. Count of elements                        : 3290
  137. Stream size                              : 20.0 MiB (0%)
  138. Title                                    : Chinese (Cantonese)
  139. Language                                 : Chinese
  140. Default                                  : No
  141. Forced                                   : No
  142.  
  143. Text #4
  144. ID                                       : 8
  145. Format                                   : PGS
  146. Codec ID                                 : S_HDMV/PGS
  147. Codec ID/Info                            : Picture based subtitle format used on BDs/HD-DVDs
  148. Duration                                 : 2h 15mn
  149. Bit rate                                 : 23.8 Kbps
  150. Count of elements                        : 3286
  151. Stream size                              : 23.0 MiB (0%)
  152. Title                                    : Chinese (Mandarin Traditional)
  153. Language                                 : Chinese
  154. Default                                  : No
  155. Forced                                   : No
  156.  
  157. Text #5
  158. ID                                       : 9
  159. Format                                   : PGS
  160. Codec ID                                 : S_HDMV/PGS
  161. Codec ID/Info                            : Picture based subtitle format used on BDs/HD-DVDs
  162. Duration                                 : 2h 15mn
  163. Bit rate                                 : 35.6 Kbps
  164. Count of elements                        : 3524
  165. Stream size                              : 34.5 MiB (0%)
  166. Title                                    : French
  167. Language                                 : French
  168. Default                                  : No
  169. Forced                                   : No
  170.  
  171. Text #6
  172. ID                                       : 10
  173. Format                                   : PGS
  174. Codec ID                                 : S_HDMV/PGS
  175. Codec ID/Info                            : Picture based subtitle format used on BDs/HD-DVDs
  176. Duration                                 : 2h 15mn
  177. Bit rate                                 : 24.9 Kbps
  178. Count of elements                        : 3136
  179. Stream size                              : 24.1 MiB (0%)
  180. Title                                    : Japanese
  181. Language                                 : Japanese
  182. Default                                  : No
  183. Forced                                   : No
  184.  
  185. Text #7
  186. ID                                       : 11
  187. Format                                   : PGS
  188. Codec ID                                 : S_HDMV/PGS
  189. Codec ID/Info                            : Picture based subtitle format used on BDs/HD-DVDs
  190. Duration                                 : 2h 15mn
  191. Bit rate                                 : 16.1 Kbps
  192. Count of elements                        : 3264
  193. Stream size                              : 15.6 MiB (0%)
  194. Title                                    : Korean
  195. Language                                 : Korean
  196. Default                                  : No
  197. Forced                                   : No
  198.  
  199. Text #8
  200. ID                                       : 12
  201. Format                                   : PGS
  202. Codec ID                                 : S_HDMV/PGS
  203. Codec ID/Info                            : Picture based subtitle format used on BDs/HD-DVDs
  204. Duration                                 : 2h 15mn
  205. Bit rate                                 : 30.0 Kbps
  206. Count of elements                        : 3268
  207. Stream size                              : 29.1 MiB (0%)
  208. Title                                    : Spanish (Latin American)
  209. Language                                 : Spanish
  210. Default                                  : No
  211. Forced                                   : No
  212.  
  213. Menu
  214. 00:00:00.000                             : en:Loki's Arrival
  215. 00:08:03.149                             : en:Tesseract Lost
  216. 00:11:50.001                             : en:Natasha's Interrogation
  217. 00:15:19.585                             : en:The Big Guy
  218. 00:20:34.316                             : en:Man Out of Time
  219. 00:23:05.092                             : en:Tony & Pepper
  220. 00:29:40.278                             : en:Loki's Bargain
  221. 00:37:24.826                             : en:Stuttgart Confrontation
  222. 00:42:48.816                             : en:Mountaintop Battle
  223. 00:50:23.103                             : en:What's His Play?
  224. 01:01:05.495                             : en:Tension Rise
  225. 01:14:05.941                             : en:Carrier Battle
  226. 01:28:02.068                             : en:Man Down
  227. 01:38:21.395                             : en:The Invasion Begins
  228. 01:45:41.001                             : en:The War
  229. 01:51:15.919                             : en:Avengers Assembled
  230. 01:57:48.603                             : en:Hope is Lost
  231. 02:04:39.514                             : en:The Sacrifice Play
  232. 02:09:40.231                             : en:A Promise
  233. 02:13:11.525                             : en:End Credits
RAW Paste Data
We use cookies for various purposes including analytics. By continuing to use Pastebin, you agree to our use of cookies as described in the Cookies Policy. OK, I Understand
Not a member of Pastebin yet?
Sign Up, it unlocks many cool features!
 
Top