SHARE
TWEET

Chernobyl: Season 1 1080p WEB-DL

dirtyharrys May 8th, 2019 154 Never
Not a member of Pastebin yet? Sign Up, it unlocks many cool features!
  1. General
  2. Unique ID                   : 199000322249545166822312664253410020389 (0x95B6116595B4AC5F189308DB1E4F8C25)
  3. Complete name               : E:\C-S01E01.mkv
  4. Format                      : Matroska
  5. Format version              : Version 4
  6. File size                   : 1.49 GiB
  7. Duration                    : 1 h 0 min
  8. Overall bit rate            : 3 554 kb/s
  9. Movie name                  : Chernobyl S01E01 / Chernobyl: Season One
  10. Description                 : Episode 01: "1.23.45"
  11. Encoded date                : UTC 2019-05-08 01:14:18
  12. Writing application         : mkvmerge v30.1.0 ('Forever And More') 32-bit
  13. Writing library             : libebml v1.3.6 + libmatroska v1.4.9
  14. Copyright                   : Movies HDs 2019
  15. ARTIST                      : HarshLearner
  16.  
  17. Video
  18. ID                          : 1
  19. Format                      : HEVC
  20. Format/Info                 : High Efficiency Video Coding
  21. Format profile              : Main 10@L4@Main
  22. Codec ID                    : V_MPEGH/ISO/HEVC
  23. Duration                    : 1 h 0 min
  24. Bit rate                    : 2 656 kb/s
  25. Width                       : 1 920 pixels
  26. Height                      : 1 080 pixels
  27. Display aspect ratio        : 16:9
  28. Frame rate mode             : Constant
  29. Frame rate                  : 23.976 (24000/1001) FPS
  30. Color space                 : YUV
  31. Chroma subsampling          : 4:2:0
  32. Bit depth                   : 10 bits
  33. Bits/(Pixel*Frame)          : 0.053
  34. Stream size                 : 1.12 GiB (75%)
  35. Title                       : S01E01: 1.23.45
  36. Writing library             : x265 3.0_Au+22-feec4bdf9866:[Windows][GCC 8.3.0][64 bit] 10bit
  37. Encoding settings           : cpuid=1111039 / frame-threads=4 / numa-pools=16 / wpp / no-pmode / no-pme / no-psnr / no-ssim / log-level=2 / input-csp=1 / input-res=1920x1080 / interlace=0 / total-frames=86592 / level-idc=0 / high-tier=1 / uhd-bd=0 / ref=4 / no-allow-non-conformance / no-repeat-headers / annexb / no-aud / no-hrd / info / hash=0 / no-temporal-layers / open-gop / min-keyint=23 / keyint=250 / gop-lookahead=0 / bframes=8 / b-adapt=2 / b-pyramid / bframe-bias=0 / rc-lookahead=50 / lookahead-slices=4 / scenecut=40 / radl=0 / no-splice / no-intra-refresh / ctu=64 / min-cu-size=8 / no-rect / no-amp / max-tu-size=32 / tu-inter-depth=1 / tu-intra-depth=1 / limit-tu=0 / rdoq-level=2 / dynamic-rd=0.00 / no-ssim-rd / signhide / no-tskip / nr-intra=0 / nr-inter=0 / no-constrained-intra / no-strong-intra-smoothing / max-merge=3 / limit-refs=3 / limit-modes / me=3 / subme=3 / merange=57 / temporal-mvp / weightp / no-weightb / no-analyze-src-pics / deblock=1:1 / no-sao / no-sao-non-deblock / rd=4 / no-early-skip / no-rskip / no-fast-intra / no-tskip-fast / no-cu-lossless / no-b-intra / no-splitrd-skip / rdpenalty=0 / psy-rd=1.10 / psy-rdoq=1.00 / no-rd-refine / no-lossless / cbqpoffs=0 / crqpoffs=0 / rc=crf / crf=21.5 / qcomp=0.60 / qpstep=4 / stats-write=0 / stats-read=0 / ipratio=1.40 / pbratio=1.30 / aq-mode=3 / aq-strength=0.80 / cutree / zone-count=0 / no-strict-cbr / qg-size=32 / no-rc-grain / qpmax=69 / qpmin=0 / no-const-vbv / sar=0 / overscan=0 / videoformat=5 / range=0 / colorprim=2 / transfer=2 / colormatrix=2 / chromaloc=0 / display-window=0 / max-cll=0,0 / min-luma=0 / max-luma=1023 / log2-max-poc-lsb=8 / vui-timing-info / vui-hrd-info / slices=1 / no-opt-qp-pps / no-opt-ref-list-length-pps / no-multi-pass-opt-rps / scenecut-bias=0.05 / no-opt-cu-delta-qp / no-aq-motion / no-hdr / no-hdr-opt / no-dhdr10-opt / no-idr-recovery-sei / analysis-reuse-level=5 / scale-factor=0 / refine-intra=0 / refine-inter=0 / refine-mv=0 / refine-ctu-distortion=0 / no-limit-sao / ctu-info=0 / no-lowpass-dct / refine-analysis-type=0 / copy-pic=1 / max-ausize-factor=1.0 / no-dynamic-refine / no-single-sei / no-hevc-aq / no-svt / qp-adaptation-range=1.00
  38. Language                    : English
  39. Default                     : Yes
  40. Forced                      : No
  41.  
  42. Audio #1
  43. ID                          : 2
  44. Format                      : E-AC-3
  45. Format/Info                 : Enhanced AC-3
  46. Commercial name             : Dolby Digital Plus
  47. Codec ID                    : A_EAC3
  48. Duration                    : 1 h 0 min
  49. Bit rate mode               : Constant
  50. Bit rate                    : 640 kb/s
  51. Channel(s)                  : 6 channels
  52. Channel layout              : L R C LFE Ls Rs
  53. Sampling rate               : 48.0 kHz
  54. Frame rate                  : 31.250 FPS (1536 SPF)
  55. Compression mode            : Lossy
  56. Delay relative to video     : 24 ms
  57. Stream size                 : 276 MiB (18%)
  58. Language                    : English
  59. Service kind                : Complete Main
  60. Default                     : No
  61. Forced                      : No
  62.  
  63. Audio #2
  64. ID                          : 3
  65. Format                      : AC-3
  66. Format/Info                 : Audio Coding 3
  67. Commercial name             : Dolby Digital
  68. Codec ID                    : A_AC3
  69. Duration                    : 1 h 0 min
  70. Bit rate mode               : Constant
  71. Bit rate                    : 256 kb/s
  72. Channel(s)                  : 2 channels
  73. Channel layout              : L R
  74. Sampling rate               : 48.0 kHz
  75. Frame rate                  : 31.250 FPS (1536 SPF)
  76. Bit depth                   : 16 bits
  77. Compression mode            : Lossy
  78. Stream size                 : 110 MiB (7%)
  79. Language                    : Spanish
  80. Service kind                : Complete Main
  81. Default                     : Yes
  82. Forced                      : Yes
  83.  
  84. Text #1
  85. ID                          : 4
  86. Format                      : UTF-8
  87. Codec ID                    : S_TEXT/UTF8
  88. Codec ID/Info               : UTF-8 Plain Text
  89. Duration                    : 59 min 46 s
  90. Bit rate                    : 45 b/s
  91. Count of elements           : 639
  92. Stream size                 : 19.9 KiB (0%)
  93. Language                    : English
  94. Default                     : No
  95. Forced                      : No
  96.  
  97. Text #2
  98. ID                          : 5
  99. Format                      : UTF-8
  100. Codec ID                    : S_TEXT/UTF8
  101. Codec ID/Info               : UTF-8 Plain Text
  102. Duration                    : 53 min 24 s
  103. Bit rate                    : 38 b/s
  104. Count of elements           : 429
  105. Stream size                 : 14.9 KiB (0%)
  106. Language                    : Spanish
  107. Default                     : Yes
  108. Forced                      : Yes
RAW Paste Data
We use cookies for various purposes including analytics. By continuing to use Pastebin, you agree to our use of cookies as described in the Cookies Policy. OK, I Understand
 
Top