SHARE
TWEET

Untitled

a guest Aug 6th, 2013 41 Never
Not a member of Pastebin yet? Sign Up, it unlocks many cool features!
  1. === Общие ===
  2. Полное имя                    : Evreyka.1958.DVDRip.XviD.pca1962.avi
  3. Формат                        : AVI
  4. Описание формата              : Audio Video Interleave
  5. Размер файла                  : 1.37 Гб
  6. Длительность                  : 2ч 31мин
  7. Общий битрейт                 : 1 299 кбит/сек
  8. Програмное обеспечение        : VirtualDubModRus 1.5.10.2 (build 2542/release)
  9. Кодирующая библиотека         : VirtualDubMod build 2542/release
  10.  
  11. === Видео ===
  12. ID (Идентификатор)            : 0
  13. Формат                        : MPEG-4 Visual
  14. Профиль формата               : Advanced Simple@L5
  15. Параметр 'BVOP'               : 1
  16. Параметр 'QPel'               : Нет
  17. Параметр 'GMC'                : No warppoints
  18. Параметр 'Matrix'             : Default (H.263)
  19. Muxing mode                   : Packed bitstream
  20. Идентификатор кодека          : XVID
  21. Подпись кодека                : XviD
  22. Длительность                  : 2ч 31мин
  23. Битрейт                       : 1098 кбит/сек
  24. Ширина кадра                  : 640 пикселей
  25. Высота кадра                  : 496 пикселей
  26. Соотношение сторон            : 1.290
  27. Частота кадров                : 23.976 кадров/сек
  28. Цветовое пространство         : YUV
  29. Субдискретизация насыщенности : 4:2:0
  30. Глубина (разрядность)         : 8 bits
  31. Тип развертки                 : Прогрессивная
  32. Режим сжатия                  : С потерями
  33. Бит/(пиксель*кадр)            : 0.144
  34. Размер потока                 : 1.16 Гб (84%)
  35. Кодирующая библиотека         : XviD 1.2.0SMP (UTC 2006-01-08)
  36.  
  37. === Аудио ===
  38. ID (Идентификатор)            : 1
  39. Формат                        : AC-3
  40. Описание формата              : Audio Coding 3
  41. Mode extension                : CM (complete main)
  42. Идентификатор кодека          : 2000
  43. Длительность                  : 2ч 31мин
  44. Тип битрейта                  : Постоянный
  45. Битрейт                       : 192 кбит/сек
  46. Канал(ы)                      : 2 каналов
  47. Расположение каналов          : Front: L R
  48. Частота дискретизации         : 48.0 кГц
  49. Глубина (разрядность)         : 16 bits
  50. Режим сжатия                  : С потерями
  51. Размер потока                 : 207 Мб (15%)
  52. Расположение потока           : Split accross interleaves
  53. Период чередования            : 42 мс (1.00 video frame)
  54. Предварительная загрузка      : 500 мс
RAW Paste Data
We use cookies for various purposes including analytics. By continuing to use Pastebin, you agree to our use of cookies as described in the Cookies Policy. OK, I Understand
Top