SHARE
TWEET

T-34 WEB-DL 720p

dirtyharrys Apr 3rd, 2019 77 Never
Not a member of Pastebin yet? Sign Up, it unlocks many cool features!
  1. General
  2. Unique ID                   : 14185398050284856526528932367740759210 (0xAAC021F265F26EFD1375ABF63DCECAA)
  3. Complete name               : C:\V0VCVC0zNA.mkv
  4. Format                      : Matroska
  5. Format version              : Version 4
  6. File size                   : 1.60 GiB
  7. Duration                    : 2 h 19 min
  8. Overall bit rate            : 1 650 kb/s
  9. Movie name                  : T-34 WEB-DL / T-34 WEB-DL
  10. Encoded date                : UTC 2019-04-02 07:57:27
  11. Writing application         : mkvmerge v30.1.0 ('Forever And More') 32-bit
  12. Writing library             : libebml v1.3.6 + libmatroska v1.4.9
  13. Copyright                   : Movies HDs 2019
  14. ARTIST                      : HarshLearner
  15.  
  16. Video
  17. ID                          : 1
  18. Format                      : AVC
  19. Format/Info                 : Advanced Video Codec
  20. Format profile              : Baseline@L3.1
  21. Format settings             : 1 Ref Frames
  22. Format settings, CABAC      : No
  23. Format settings, ReFrames   : 1 frame
  24. Codec ID                    : V_MPEG4/ISO/AVC
  25. Duration                    : 2 h 19 min
  26. Bit rate                    : 1 400 kb/s
  27. Width                       : 1 280 pixels
  28. Height                      : 720 pixels
  29. Display aspect ratio        : 16:9
  30. Frame rate mode             : Constant
  31. Frame rate                  : 30.000 FPS
  32. Color space                 : YUV
  33. Chroma subsampling          : 4:2:0
  34. Bit depth                   : 8 bits
  35. Scan type                   : Progressive
  36. Bits/(Pixel*Frame)          : 0.051
  37. Stream size                 : 1.35 GiB (84%)
  38. Title                       : T-34
  39. Writing library             : x264 core 155 r2901 7d0ff22
  40. Default                     : Yes
  41. Forced                      : No
  42.  
  43. Audio
  44. ID                          : 2
  45. Format                      : AC-3
  46. Format/Info                 : Audio Coding 3
  47. Commercial name             : Dolby Digital
  48. Codec ID                    : A_AC3
  49. Duration                    : 2 h 19 min
  50. Bit rate mode               : Constant
  51. Bit rate                    : 256 kb/s
  52. Channel(s)                  : 2 channels
  53. Channel layout              : L R
  54. Sampling rate               : 48.0 kHz
  55. Frame rate                  : 31.250 FPS (1536 SPF)
  56. Bit depth                   : 16 bits
  57. Compression mode            : Lossy
  58. Stream size                 : 255 MiB (16%)
  59. Language                    : Russian
  60. Service kind                : Complete Main
  61. Default                     : Yes
  62. Forced                      : No
  63.  
  64. Text #1
  65. ID                          : 3
  66. Format                      : UTF-8
  67. Codec ID                    : S_TEXT/UTF8
  68. Codec ID/Info               : UTF-8 Plain Text
  69. Duration                    : 2 h 8 min
  70. Bit rate                    : 27 b/s
  71. Count of elements           : 1028
  72. Stream size                 : 25.8 KiB (0%)
  73. Language                    : English
  74. Default                     : No
  75. Forced                      : No
  76.  
  77. Text #2
  78. ID                          : 4
  79. Format                      : UTF-8
  80. Codec ID                    : S_TEXT/UTF8
  81. Codec ID/Info               : UTF-8 Plain Text
  82. Duration                    : 2 h 8 min
  83. Bit rate                    : 32 b/s
  84. Count of elements           : 1034
  85. Stream size                 : 30.2 KiB (0%)
  86. Language                    : Spanish
  87. Default                     : Yes
  88. Forced                      : Yes
RAW Paste Data
We use cookies for various purposes including analytics. By continuing to use Pastebin, you agree to our use of cookies as described in the Cookies Policy. OK, I Understand
 
Top