Guest User

Untitled

a guest
Feb 25th, 2021
33
Never
Not a member of Pastebin yet? Sign Up, it unlocks many cool features!
  1. Patsient.zero.2019.720p.BluRay.ELEKTRI4KA.UNIONGANG.mkv
  2. Format : Matroska
  3. Format version : Version 4 / Version 2
  4. File size : 4.86 GiB
  5. Duration : 1 h 29 min
  6. Overall bit rate : 7 803 kb/s
  7. Movie name : Patsient.zero.2019.720p.BluRay.ELEKTRI4KA.UNIONGANG.
  8. Encoded date : UTC 2021-02-24 22:50:33
  9. Writing application : mkvmerge v8.3.0 ('Over the Horizon') 64bit
  10. Writing library : libebml v1.3.1 + libmatroska v1.4.2
  11.  
  12. Video
  13. ID : 1
  14. Format : AVC
  15. Format/Info : Advanced Video Codec
  16. Format profile : High@L4.1
  17. Format settings, CABAC : Yes
  18. Format settings, Reference frames : 12 frames
  19. Codec ID : V_MPEG4/ISO/AVC
  20. Duration : 1 h 29 min
  21. Bit rate : 6 800 kb/s
  22. Width : 1 280 pixels
  23. Height : 536 pixels
  24. Display aspect ratio : 2.40:1
  25. Frame rate mode : Constant
  26. Frame rate : 23.976 (24000/1001) FPS
  27. Color space : YUV
  28. Chroma subsampling : 4:2:0
  29. Bit depth : 8 bits
  30. Scan type : Progressive
  31. Bits/(Pixel*Frame) : 0.413
  32. Stream size : 4.22 GiB (87%)
  33. Writing library : x264 core 161 r3018+53 ~ Encoded by Mocunaman in Portugal
  34. Encoding settings : cabac=1 / ref=12 / deblock=1:-3:-3 / analyse=0x3:0x133 / me=umh / subme=11 / psy=1 / fade_compensate=0.00 / psy_rd=1.00:0.00 / mixed_ref=1 / me_range=32 / chroma_me=1 / trellis=2 / 8x8dct=1 / cqm=0 / deadzone=21,11 / fast_pskip=0 / chroma_qp_offset=-2 / threads=17 / lookahead_threads=2 / sliced_threads=0 / nr=0 / decimate=0 / interlaced=0 / bluray_compat=0 / constrained_intra=0 / fgo=0 / bframes=8 / b_pyramid=2 / b_adapt=2 / b_bias=0 / direct=3 / weightb=1 / open_gop=0 / weightp=2 / keyint=250 / keyint_min=23 / scenecut=40 / intra_refresh=0 / rc=2pass / mbtree=0 / bitrate=6800 / ratetol=1.0 / qcomp=0.65 / qpmin=0:0:0 / qpmax=69:69:69 / qpstep=4 / cplxblur=20.0 / qblur=0.5 / ip_ratio=1.30 / pb_ratio=1.20 / aq=3:0.85 / aq-sensitivity=10.00 / aq-factor=1.00:1.00:1.00 / aq2=0 / aq3=0 / zones=0,1008,b=1.3/1152,4248,b=1.3/24846,29766,b=1.5/33870,36678,b=1.3/38310,109710,b=1.3/109880,118856,b=1.3
  35. Language : English
  36. Default : Yes
  37. Forced : No
  38. Color range : Limited
  39. Matrix coefficients : BT.709
  40.  
  41. Audio #1
  42. ID : 2
  43. Format : AC-3
  44. Format/Info : Audio Coding 3
  45. Mode extension : CM (complete main)
  46. Format settings, Endianness : Big
  47. Codec ID : A_AC3
  48. Duration : 1 h 29 min
  49. Bit rate mode : Constant
  50. Bit rate : 384 kb/s
  51. Channel(s) : 6 channels
  52. Channel positions : Front: L C R, Side: L R, LFE
  53. Sampling rate : 48.0 kHz
  54. Frame rate : 31.250 FPS (1536 spf)
  55. Bit depth : 16 bits
  56. Compression mode : Lossy
  57. Stream size : 245 MiB (5%)
  58. Title : DUB (iTunes)
  59. Language : Russian
  60. Default : Yes
  61. Forced : Yes
  62.  
  63. Audio #2
  64. ID : 3
  65. Format : AC-3
  66. Format/Info : Audio Coding 3
  67. Mode extension : CM (complete main)
  68. Format settings, Endianness : Big
  69. Codec ID : A_AC3
  70. Duration : 1 h 29 min
  71. Bit rate mode : Constant
  72. Bit rate : 640 kb/s
  73. Channel(s) : 6 channels
  74. Channel positions : Front: L C R, Side: L R, LFE
  75. Sampling rate : 48.0 kHz
  76. Frame rate : 31.250 FPS (1536 spf)
  77. Bit depth : 16 bits
  78. Compression mode : Lossy
  79. Stream size : 408 MiB (8%)
  80. Title : AC3 DD5.1 640kbs
  81. Language : Dutch
  82. Default : No
  83. Forced : No
  84.  
  85. Text #1
  86. ID : 4
  87. Format : UTF-8
  88. Codec ID : S_TEXT/UTF8
  89. Codec ID/Info : UTF-8 Plain Text
  90. Duration : 1 h 18 min
  91. Bit rate : 5 b/s
  92. Count of elements : 99
  93. Stream size : 2.94 KiB (0%)
  94. Title : Forced .srt
  95. Language : English
  96. Default : Yes
  97. Forced : Yes
  98.  
  99. Text #2
  100. ID : 5
  101. Format : UTF-8
  102. Codec ID : S_TEXT/UTF8
  103. Codec ID/Info : UTF-8 Plain Text
  104. Duration : 1 h 24 min
  105. Bit rate : 29 b/s
  106. Count of elements : 833
  107. Stream size : 18.5 KiB (0%)
  108. Title : Full .srt
  109. Language : English
  110. Default : No
  111. Forced : No
  112.  
  113. Text #3
  114. ID : 6
  115. Format : UTF-8
  116. Codec ID : S_TEXT/UTF8
  117. Codec ID/Info : UTF-8 Plain Text
  118. Duration : 1 h 27 min
  119. Bit rate : 35 b/s
  120. Count of elements : 1248
  121. Stream size : 23.0 KiB (0%)
  122. Title : SDH .srt
  123. Language : English
  124. Default : No
  125. Forced : No
  126.  
  127. Menu
  128. 00:00:00.000 : :Morgue Madness
  129. 00:02:57.469 : :Roadkill
  130. 00:07:27.947 : :Klinika Krawczyk
  131. 00:17:16.994 : :Are You Okay?
  132. 00:24:30.219 : :Stairway to Hell
  133. 00:32:23.024 : :Wake Up
  134. 00:41:31.781 : :God is Punishing Us
  135. 00:48:55.724 : :Mama Mia!
  136. 00:58:47.983 : :The Only Way Out
  137. 01:05:51.990 : :Risk of Contamination
  138. 01:14:15.076 : :Making a Break
  139. 01:22:45.544 : :Pookie?
  140.  
RAW Paste Data