Advertisement
Guest User

Sport 1 HD_2014_0407_2329_23.mpg

a guest
Apr 7th, 2014
111
Never
Not a member of Pastebin yet? Sign Up, it unlocks many cool features!
text 2.77 KB | None
  1. General
  2. ID : 25 (0x19)
  3. Complete name : ...\Sport 1 HD_2014_0407_2329_23.mpg
  4. Format : MPEG-TS
  5. File size : 49.8 MiB
  6. Duration : 32s 322ms
  7. Start time : UTC 2014-04-07 21:29:40
  8. End time : UTC 2014-04-07 21:30:00
  9. Overall bit rate : 12.9 Mbps
  10. Network name : DIGI
  11. Original network name : Astra Satellite Network 19,2'E
  12. Country : HUN
  13. Timezone : +02:00:00
  14.  
  15. Video
  16. ID : 601 (0x259)
  17. Menu ID : 216 (0xD8)
  18. Format : AVC
  19. Format/Info : Advanced Video Codec
  20. Format profile : Main@L4.0
  21. Format settings, CABAC : Yes
  22. Format settings, ReFrames : 2 frames
  23. Codec ID : 27
  24. Duration : 31s 120ms
  25. Bit rate : 12.0 Mbps
  26. Width : 1 920 pixels
  27. Height : 1 080 pixels
  28. Display aspect ratio : 16:9
  29. Frame rate : 25.000 fps
  30. Color space : YUV
  31. Chroma subsampling : 4:2:0
  32. Bit depth : 8 bits
  33. Scan type : MBAFF
  34. Bits/(Pixel*Frame) : 0.232
  35. Stream size : 44.6 MiB (90%)
  36. Color primaries : BT.709-5, BT.1361, IEC 61966-2-4, SMPTE RP177
  37. Transfer characteristics : BT.709-5, BT.1361
  38. Matrix coefficients : BT.709-5, BT.1361, IEC 61966-2-4 709, SMPTE RP177
  39.  
  40. Audio
  41. ID : 33 (0x21)
  42. Menu ID : 216 (0xD8)
  43. Format : MPEG Audio
  44. Format version : Version 1
  45. Format profile : Layer 2
  46. Codec ID : 3
  47. Duration : 32s 304ms
  48. Bit rate mode : Constant
  49. Bit rate : 192 Kbps
  50. Channel(s) : 2 channels
  51. Sampling rate : 48.0 KHz
  52. Compression mode : Lossy
  53. Delay relative to video : -1s 375ms
  54. Stream size : 757 KiB (1%)
  55. Language : Hungarian
Advertisement
RAW Paste Data Copied
Advertisement