SHARE
TWEET

2004_Spider-Man_II_[Extended_Cut]_Blu-Ray_1080P_DuaL_X265_10

ChrisHD13 Jun 19th, 2019 75 Never
Not a member of Pastebin yet? Sign Up, it unlocks many cool features!
  1. Complete name               : C:\2004_Spider-Man_II_[Extended_Cut]_Blu-Ray_1080P_DuaL_X265_10Bits_Slower_ChrisHD.mkv
  2. Format                      : Matroska
  3. Format version              : Version 4 / Version 2
  4. File size                   : 9.15 GiB
  5. Duration                    : 2 h 15 min
  6. Overall bit rate            : 9 646 kb/s
  7. Movie name                  : 2004 - Spider-Man 2.1 [Extended Cut] [ChrisHD]
  8. Encoded date                : UTC 2019-06-11 12:59:00
  9. Writing application         : mkvmerge v31.0.0 ('Dolores In A Shoestand') 64-bit
  10. Writing library             : libebml v1.3.6 + libmatroska v1.4.9
  11.  
  12. Video
  13. ID                          : 1
  14. Format                      : HEVC
  15. Format/Info                 : High Efficiency Video Coding
  16. Format profile              : Main 10@L4@Main
  17. Codec ID                    : V_MPEGH/ISO/HEVC
  18. Duration                    : 2 h 15 min
  19. Bit rate                    : 7 686 kb/s
  20. Width                       : 1 920 pixels
  21. Height                      : 1 080 pixels
  22. Display aspect ratio        : 16:9
  23. Frame rate mode             : Constant
  24. Frame rate                  : 23.976 (24000/1001) FPS
  25. Color space                 : YUV
  26. Chroma subsampling          : 4:2:0
  27. Bit depth                   : 10 bits
  28. Bits/(Pixel*Frame)          : 0.155
  29. Stream size                 : 7.29 GiB (80%)
  30. Title                       : BD50 - ChrisHD
  31. Writing library             : x265 3.0_Au+4-dcbec33bfb0f:[Windows][GCC 8.2.1][64 bit] 10bit
  32. Encoding settings           : cpuid=1111039 / frame-threads=3 / numa-pools=8 / wpp / no-pmode / no-pme / no-psnr / no-ssim / log-level=2 / input-csp=1 / input-res=1920x1080 / interlace=0 / total-frames=195360 / level-idc=0 / high-tier=1 / uhd-bd=0 / ref=5 / no-allow-non-conformance / no-repeat-headers / annexb / no-aud / no-hrd / info / hash=0 / no-temporal-layers / open-gop / min-keyint=23 / keyint=250 / gop-lookahead=0 / bframes=8 / b-adapt=2 / b-pyramid / bframe-bias=0 / rc-lookahead=40 / lookahead-slices=0 / scenecut=40 / radl=0 / no-splice / no-intra-refresh / ctu=64 / min-cu-size=8 / rect / amp / max-tu-size=32 / tu-inter-depth=3 / tu-intra-depth=3 / limit-tu=4 / rdoq-level=2 / dynamic-rd=0.00 / no-ssim-rd / signhide / no-tskip / nr-intra=0 / nr-inter=0 / no-constrained-intra / strong-intra-smoothing / max-merge=4 / limit-refs=1 / limit-modes / me=3 / subme=4 / merange=57 / temporal-mvp / weightp / weightb / no-analyze-src-pics / deblock=-2:-2 / no-sao / no-sao-non-deblock / rd=6 / no-early-skip / rskip / no-fast-intra / no-tskip-fast / no-cu-lossless / b-intra / no-splitrd-skip / rdpenalty=0 / psy-rd=2.00 / psy-rdoq=1.00 / no-rd-refine / no-lossless / cbqpoffs=0 / crqpoffs=0 / rc=crf / crf=20.0 / qcomp=0.60 / qpstep=4 / stats-write=0 / stats-read=0 / ipratio=1.40 / pbratio=1.30 / aq-mode=2 / aq-strength=1.00 / cutree / zone-count=0 / no-strict-cbr / qg-size=32 / no-rc-grain / qpmax=69 / qpmin=0 / no-const-vbv / sar=1 / overscan=0 / videoformat=5 / range=0 / colorprim=2 / transfer=2 / colormatrix=2 / chromaloc=0 / display-window=0 / max-cll=0,0 / min-luma=0 / max-luma=1023 / log2-max-poc-lsb=8 / vui-timing-info / vui-hrd-info / slices=1 / no-opt-qp-pps / no-opt-ref-list-length-pps / no-multi-pass-opt-rps / scenecut-bias=0.05 / no-opt-cu-delta-qp / no-aq-motion / no-hdr / no-hdr-opt / no-dhdr10-opt / no-idr-recovery-sei / analysis-reuse-level=5 / scale-factor=0 / refine-intra=0 / refine-inter=0 / refine-mv=0 / refine-ctu-distortion=0 / no-limit-sao / ctu-info=0 / no-lowpass-dct / refine-analysis-type=0 / copy-pic=1 / max-ausize-factor=1.0 / no-dynamic-refine / no-single-sei / no-hevc-aq / qp-adaptation-range=1.00
  33. Language                    : English
  34. Default                     : Yes
  35. Forced                      : Yes
  36.  
  37. Audio #1
  38. ID                          : 2
  39. Format                      : DTS
  40. Format/Info                 : Digital Theater Systems
  41. Codec ID                    : A_DTS
  42. Duration                    : 2 h 15 min
  43. Bit rate mode               : Constant
  44. Bit rate                    : 1 510 kb/s
  45. Channel(s)                  : 6 channels
  46. Channel positions           : Front: L C R, Side: L R, LFE
  47. Sampling rate               : 48.0 kHz
  48. Frame rate                  : 93.750 FPS (512 SPF)
  49. Bit depth                   : 24 bits
  50. Compression mode            : Lossy
  51. Stream size                 : 1.43 GiB (16%)
  52. Title                       : Inglés - ChrisHD [DTS]
  53. Language                    : English
  54. Default                     : Yes
  55. Forced                      : Yes
  56.  
  57. Audio #2
  58. ID                          : 3
  59. Format                      : AC-3
  60. Format/Info                 : Audio Coding 3
  61. Codec ID                    : A_AC3
  62. Duration                    : 2 h 15 min
  63. Bit rate mode               : Constant
  64. Bit rate                    : 448 kb/s
  65. Channel(s)                  : 6 channels
  66. Channel positions           : Front: L C R, Side: L R, LFE
  67. Sampling rate               : 48.0 kHz
  68. Frame rate                  : 31.250 FPS (1536 SPF)
  69. Bit depth                   : 16 bits
  70. Compression mode            : Lossy
  71. Stream size                 : 435 MiB (5%)
  72. Title                       : Latino - ChrisHD [AC-3]
  73. Language                    : Spanish
  74. Service kind                : Complete Main
  75. Default                     : No
  76. Forced                      : No
  77.  
  78. Text
  79. ID                          : 4
  80. Format                      : UTF-8
  81. Codec ID                    : S_TEXT/UTF8
  82. Codec ID/Info               : UTF-8 Plain Text
  83. Duration                    : 2 h 9 min
  84. Bit rate                    : 39 b/s
  85. Count of elements           : 1219
  86. Stream size                 : 37.4 KiB (0%)
  87. Title                       : Latino - ChrisHD [SRT]
  88. Language                    : Spanish
  89. Default                     : Yes
  90. Forced                      : Yes
  91.  
  92. Menu
  93. 00:00:00.000                : en:Main Titles
  94. 00:03:27.457                : en:Pizza Man
  95. 00:08:13.534                : en:J. Jonah Jameson
  96. 00:09:41.455                : en:Dr. Connors
  97. 00:10:54.945                : en:"Surprise!"
  98. 00:16:10.844                : en:Peter and Mj in the Backyard
  99. 00:19:24.663                : en:Mr. Ditkovich
  100. 00:21:19.736                : en:Otto Octavius
  101. 00:25:05.629                : en:Wash 'n Dry
  102. 00:25:43.667                : en:The Importance of Being Earnest
  103. 00:27:16.843                : en:Car Chase
  104. 00:29:17.797                : en:The Importance of Being on Time
  105. 00:31:39.647                : en:Web Failure
  106. 00:32:47.131                : en:The Elevator
  107. 00:35:20.910                : en:Peter Calls Mj
  108. 00:37:27.119                : en:Otto's Demonstration
  109. 00:44:07.770                : en:Horror Hospital
  110. 00:46:11.143                : en:Ock Awakens to the Horror
  111. 00:47:29.554                : en:New Villain in Town
  112. 00:49:01.146                : en:Doc Ock's Lair
  113. 00:51:17.449                : en:Bank Heist
  114. 00:54:21.716                : en:Battle Building
  115. 00:57:42.166                : en:Planetarium Party
  116. 01:02:44.343                : en:Spidey Crash Lands in Alley
  117. 01:04:15.893                : en:Ock Rebuilds
  118. 01:06:08.297                : en:Diagnosis
  119. 01:08:26.268                : en:Spider-Man No More
  120. 01:10:49.578                : en:"Raindrops Keep Falling on My Head"
  121. 01:12:33.599                : en:Peter Attends Mj's Play
  122. 01:15:23.435                : en:Jameson Gets the Suit
  123. 01:17:11.293                : en:Peter's Confession
  124. 01:21:21.793                : en:One More Little Chore
  125. 01:24:15.717                : en:Peter and the Burning Building
  126. 01:26:49.537                : en:Frustration
  127. 01:28:59.333                : en:Peter and Aunt May in the Backyard
  128. 01:32:49.146                : en:"My Back! My Back!"
  129. 01:34:22.740                : en:Mj Doubts John's The One
  130. 01:35:44.655                : en:"Do You Love Me, or Not?"
  131. 01:38:13.512                : en:Enter the Octopus
  132. 01:40:40.284                : en:He's Back
  133. 01:41:46.475                : en:Clock Tower Fight
  134. 01:42:44.241                : en:The Train
  135. 01:45:32.909                : en:A Train to Catch
  136. 01:48:16.448                : en:Grateful Train Passengers
  137. 01:50:58.651                : en:Harry Learns the Truth About Peter
  138. 01:53:12.869                : en:The Final Confrontation
  139. 01:56:23.643                : en:Peter Appeals to Otto
  140. 02:01:27.613                : en:Web Love
  141. 02:03:50.464                : en:The Return of the Green Goblin
  142. 02:06:17.319                : en:Here Comes the Bride
  143. 02:10:14.473                : en:The Final Swing
  144. 02:11:03.688                : en:End Credits
RAW Paste Data
We use cookies for various purposes including analytics. By continuing to use Pastebin, you agree to our use of cookies as described in the Cookies Policy. OK, I Understand
 
Top