Advertisement
yushiro

p.Yentl (1983)[BDRip m1080p].yus

Mar 5th, 2021
141
0
Never
Not a member of Pastebin yet? Sign Up, it unlocks many cool features!
text 7.30 KB | None | 0 0
  1. General
  2. Unique ID : 194601608104912780453025816110266755648 (0x9266E80BA239FD21E1DCF2A4E562AA40)
  3. Complete name : G:\Yentl (1983)[BDRip m1080p].mkv
  4. Format : Matroska
  5. Format version : Version 4
  6. File size : 3.71 GiB
  7. Duration : 2 h 16 min
  8. Overall bit rate : 3 885 kb/s
  9. Movie name : Yentl
  10. ContentType : Movie
  11. Description : En un momento en que el mundo del estudio pertenecía sólo a los hombres, vivía una niña que se atrevió a preguntar ¿por qué?
  12. Released date : 1983-11-18
  13. Encoded date : UTC 2021-03-05 01:36:54
  14. Writing application : mkvmerge v51.0.0 ('I Wish') 64-bit
  15. Writing library : libebml v1.4.0 + libmatroska v1.6.2
  16. ACTOR : Barbra Streisand, Mandy Patinkin, Amy Irving, Nehemiah Persoff, Steven Hill, Miriam Margolyes, Ian Sears, Allan Corduner, Lynda Baron, David de Keyser, Bernard Spear, Doreen Mantle, Jonathan Tafler, Kerry Shale, Peter Whitman
  17. ARTIST : Barbra Streisand, Mandy Patinkin, Amy Irving, Nehemiah Persoff, Steven Hill, Miriam Margolyes, Ian Sears, Allan Corduner, Lynda Baron, David de Keyser, Bernard Spear, Doreen Mantle, Jonathan Tafler, Kerry Shale, Peter Whitman
  18. DATE_RECORDED : 1983-11-18
  19. DIRECTOR : Barbra Streisand
  20. GENRE : Música, Drama, Romance
  21. LAW_RATING : PG
  22. PRODUCER : Barbra Streisand, Rusty Lemorande
  23. PRODUCTION_STUDIO : Barwood Films
  24. RATING : PG
  25. SCREENPLAY_BY : Barbra Streisand, Jack Rosenthal
  26. SUMMARY : En un momento en que el mundo del estudio pertenecía sólo a los hombres, vivía una niña que se atrevió a preguntar ¿por qué?
  27. SYNOPSIS : La hija de un rabino se hace pasar por varón para estudiar en una escuela reservada para hombres. La polifacética Barbra Streisand consiguió el reconocimiento no sólo por su interpretación de la joven judía, sino por ser la primera película de la historia producida, dirigida, escrita e interpretada por una mujer.
  28. WRITTEN_BY : Barbra Streisand, Jack Rosenthal
  29.  
  30. Video
  31. ID : 1
  32. Format : AVC
  33. Format/Info : Advanced Video Codec
  34. Format profile : High@L4.1
  35. Format settings : CABAC / 2 Ref Frames
  36. Format settings, CABAC : Yes
  37. Format settings, Reference : 2 frames
  38. Codec ID : V_MPEG4/ISO/AVC
  39. Duration : 2 h 16 min
  40. Bit rate : 3 500 kb/s
  41. Width : 1 920 pixels
  42. Height : 1 080 pixels
  43. Display aspect ratio : 5:3
  44. Frame rate mode : Constant
  45. Frame rate : 23.976 (24000/1001) FPS
  46. Color space : YUV
  47. Chroma subsampling : 4:2:0
  48. Bit depth : 8 bits
  49. Scan type : Progressive
  50. Bits/(Pixel*Frame) : 0.070
  51. Stream size : 3.34 GiB (90%)
  52. Title : Yentl (1983)[BDRip m1080p]
  53. Writing library : x264 core 160 r3000
  54. Encoding settings : cabac=1 / ref=2 / deblock=1:-1:-1 / analyse=0x3:0x133 / me=hex / subme=6 / psy=1 / psy_rd=1.00:0.15 / mixed_ref=0 / me_range=16 / chroma_me=1 / trellis=1 / 8x8dct=1 / cqm=0 / deadzone=21,11 / fast_pskip=1 / chroma_qp_offset=-3 / threads=16 / lookahead_threads=2 / sliced_threads=0 / nr=0 / decimate=1 / interlaced=0 / bluray_compat=0 / constrained_intra=0 / bframes=3 / b_pyramid=0 / b_adapt=1 / b_bias=0 / direct=0 / weightb=1 / open_gop=0 / weightp=2 / keyint=239 / keyint_min=23 / scenecut=40 / intra_refresh=0 / rc_lookahead=30 / rc=2pass / mbtree=1 / bitrate=3500 / ratetol=1.0 / qcomp=0.60 / qpmin=10 / qpmax=69 / qpstep=4 / cplxblur=20.0 / qblur=0.5 / vbv_maxrate=40000 / vbv_bufsize=30000 / nal_hrd=none / filler=0 / ip_ratio=1.40 / aq=3:1.00
  55. Language : Spanish
  56. Default : Yes
  57. Forced : No
  58. Color range : Limited
  59. Color primaries : BT.709
  60. Transfer characteristics : BT.709
  61. Matrix coefficients : BT.709
  62.  
  63. Audio #1
  64. ID : 2
  65. Format : AC-3
  66. Format/Info : Audio Coding 3
  67. Commercial name : Dolby Digital
  68. Codec ID : A_AC3
  69. Duration : 2 h 16 min
  70. Bit rate mode : Constant
  71. Bit rate : 192 kb/s
  72. Channel(s) : 2 channels
  73. Channel layout : L R
  74. Sampling rate : 48.0 kHz
  75. Frame rate : 31.250 FPS (1536 SPF)
  76. Compression mode : Lossy
  77. Delay relative to video : 5 ms
  78. Stream size : 188 MiB (5%)
  79. Title : Castellano AC3 Stéreo
  80. Language : Spanish
  81. Service kind : Complete Main
  82. Default : Yes
  83. Forced : No
  84.  
  85. Audio #2
  86. ID : 3
  87. Format : AC-3
  88. Format/Info : Audio Coding 3
  89. Commercial name : Dolby Digital
  90. Codec ID : A_AC3
  91. Duration : 2 h 16 min
  92. Bit rate mode : Constant
  93. Bit rate : 192 kb/s
  94. Channel(s) : 2 channels
  95. Channel layout : L R
  96. Sampling rate : 48.0 kHz
  97. Frame rate : 31.250 FPS (1536 SPF)
  98. Compression mode : Lossy
  99. Stream size : 188 MiB (5%)
  100. Title : Inglés AC3 Stéreo
  101. Language : English
  102. Service kind : Complete Main
  103. Default : No
  104. Forced : No
  105.  
  106. Text #1
  107. ID : 4
  108. Format : UTF-8
  109. Codec ID : S_TEXT/UTF8
  110. Codec ID/Info : UTF-8 Plain Text
  111. Duration : 2 h 0 min
  112. Bit rate : 18 b/s
  113. Count of elements : 418
  114. Stream size : 16.0 KiB (0%)
  115. Title : Forzados
  116. Language : Spanish
  117. Default : Yes
  118. Forced : Yes
  119.  
  120. Text #2
  121. ID : 5
  122. Format : UTF-8
  123. Codec ID : S_TEXT/UTF8
  124. Codec ID/Info : UTF-8 Plain Text
  125. Duration : 2 h 15 min
  126. Bit rate : 62 b/s
  127. Count of elements : 1761
  128. Stream size : 61.6 KiB (0%)
  129. Title : Completos
  130. Language : Spanish
  131. Default : No
  132. Forced : No
  133.  
  134. Text #3
  135. ID : 6
  136. Format : UTF-8
  137. Codec ID : S_TEXT/UTF8
  138. Codec ID/Info : UTF-8 Plain Text
  139. Duration : 2 h 9 min
  140. Bit rate : 65 b/s
  141. Count of elements : 1746
  142. Stream size : 61.7 KiB (0%)
  143. Title : Completos
  144. Language : English
  145. Default : No
  146. Forced : No
  147.  
  148. Menu
  149. 00:00:00.000 : en:Chapter 1
  150.  
  151.  
Advertisement
Add Comment
Please, Sign In to add comment
Advertisement