Guest User

Above.The.Law.1988.1080p.BluRay.DTS-HD.x264-BARC0DE

a guest
May 23rd, 2019
28
Never
Not a member of Pastebin yet? Sign Up, it unlocks many cool features!
  1. General
  2. Unique ID                                : 198931226454368104720921420398135280250 (0x95A8C2B60A5145C69AA922C6F9E7027A)
  3. Complete name                            : Above.The.Law.1988.1080p.BluRay.DTS-HD.x264-BARC0DE.mkv
  4. Format                                   : Matroska
  5. Format version                           : Version 2
  6. File size                                : 7.89 GiB
  7. Duration                                 : 1 h 39 min
  8. Overall bit rate                         : 11.4 Mb/s
  9. Encoded date                             : UTC 2014-05-20 10:48:05
  10. Writing application                      : mkvmerge v5.8.0 ('No Sleep / Pillow') built on Sep  2 2012 15:37:04
  11. Writing library                          : libebml v1.2.3 + libmatroska v1.3.0
  12.  
  13. Video
  14. ID                                       : 1
  15. Format                                   : AVC
  16. Format/Info                              : Advanced Video Codec
  17. Format profile                           : High@L4
  18. Format settings                          : CABAC / 4 Ref Frames
  19. Format settings, CABAC                   : Yes
  20. Format settings, Reference frames        : 4 frames
  21. Muxing mode                              : Header stripping
  22. Codec ID                                 : V_MPEG4/ISO/AVC
  23. Duration                                 : 1 h 39 min
  24. Bit rate                                 : 10 000 kb/s
  25. Width                                    : 1 920 pixels
  26. Height                                   : 1 080 pixels
  27. Display aspect ratio                     : 16:9
  28. Frame rate mode                          : Constant
  29. Frame rate                               : 23.976 (24000/1001) FPS
  30. Color space                              : YUV
  31. Chroma subsampling                       : 4:2:0
  32. Bit depth                                : 8 bits
  33. Scan type                                : Progressive
  34. Bits/(Pixel*Frame)                       : 0.201
  35. Stream size                              : 6.68 GiB (85%)
  36. Writing library                          : x264 core 130 r2273 b3065e6
  37. Encoding settings                        : cabac=1 / ref=3 / deblock=1:0:0 / analyse=0x3:0x113 / me=hex / subme=7 / psy=1 / psy_rd=1.00:0.00 / mixed_ref=1 / me_range=16 / chroma_me=1 / trellis=1 / 8x8dct=1 / cqm=0 / deadzone=21,11 / fast_pskip=1 / chroma_qp_offset=-2 / threads=12 / lookahead_threads=2 / sliced_threads=0 / nr=0 / decimate=1 / interlaced=0 / bluray_compat=0 / constrained_intra=0 / bframes=3 / b_pyramid=2 / b_adapt=1 / b_bias=0 / direct=1 / weightb=1 / open_gop=0 / weightp=2 / keyint=240 / keyint_min=24 / scenecut=40 / intra_refresh=0 / rc_lookahead=40 / rc=abr / mbtree=1 / bitrate=10000 / ratetol=1.0 / qcomp=0.60 / qpmin=0 / qpmax=69 / qpstep=4 / vbv_maxrate=25000 / vbv_bufsize=31250 / nal_hrd=none / ip_ratio=1.40 / aq=1:1.00
  38. Language                                 : English
  39. Default                                  : Yes
  40. Forced                                   : No
  41. Color range                              : Limited
  42. Color primaries                          : BT.709
  43. Transfer characteristics                 : BT.709
  44. Matrix coefficients                      : BT.709
  45.  
  46. Audio
  47. ID                                       : 2
  48. Format                                   : DTS
  49. Format/Info                              : Digital Theater Systems
  50. Muxing mode                              : Header stripping
  51. Codec ID                                 : A_DTS
  52. Duration                                 : 1 h 39 min
  53. Bit rate mode                            : Constant
  54. Bit rate                                 : 1 510 kb/s
  55. Channel(s)                               : 6 channels
  56. Channel layout                           : C L R Ls Rs LFE
  57. Sampling rate                            : 48.0 kHz
  58. Frame rate                               : 93.750 FPS (512 SPF)
  59. Bit depth                                : 24 bits
  60. Compression mode                         : Lossy
  61. Stream size                              : 1.05 GiB (13%)
  62. Language                                 : English
  63. Default                                  : Yes
  64. Forced                                   : No
  65.  
  66. Menu
  67. 00:00:00.000                             : en:Chapter 1
  68. 00:02:49.085                             : en:Chapter 2
  69. 00:06:13.456                             : en:Chapter 3
  70. 00:08:45.233                             : en:Chapter 4
  71. 00:11:51.127                             : en:Chapter 5
  72. 00:12:47.558                             : en:Chapter 6
  73. 00:17:14.908                             : en:Chapter 7
  74. 00:21:26.785                             : en:Chapter 8
  75. 00:24:59.039                             : en:Chapter 9
  76. 00:27:40.075                             : en:Chapter 10
  77. 00:29:47.410                             : en:Chapter 11
  78. 00:32:07.550                             : en:Chapter 12
  79. 00:36:23.472                             : en:Chapter 13
  80. 00:41:15.264                             : en:Chapter 14
  81. 00:43:09.628                             : en:Chapter 15
  82. 00:48:35.329                             : en:Chapter 16
  83. 00:52:25.308                             : en:Chapter 17
  84. 00:54:26.263                             : en:Chapter 18
  85. 00:57:55.680                             : en:Chapter 19
  86. 01:01:03.201                             : en:Chapter 20
  87. 01:05:20.583                             : en:Chapter 21
  88. 01:07:59.408                             : en:Chapter 22
  89. 01:14:15.492                             : en:Chapter 23
  90. 01:16:06.979                             : en:Chapter 24
  91. 01:19:26.511                             : en:Chapter 25
  92. 01:21:05.735                             : en:Chapter 26
  93. 01:24:15.675                             : en:Chapter 27
  94. 01:30:13.032                             : en:Chapter 28
  95. 01:32:42.265                             : en:Chapter 29
  96. 01:33:54.211                             : en:Chapter 30
  97. 01:35:55.124                             : en:Chapter 31
RAW Paste Data