Guest User

Untitled

a guest
Mar 18th, 2020
98
Never
Not a member of Pastebin yet? Sign Up, it unlocks many cool features!
  1. ffprobe 00020.MTS
  2. ffprobe version 4.2.1-2+b1 Copyright (c) 2007-2019 the FFmpeg developers
  3. built with gcc 9 (Debian 9.2.1-21)
  4. configuration: --prefix=/usr --extra-version=2+b1 --toolchain=hardened --libdir=/usr/lib/x86_64-linux-gnu --incdir=/usr/include/x86_64-linux-gnu --arch=amd64 --enable-gpl --disable-stripping --enable-avresample --disable-filter=resample --enable-avisynth --enable-gnutls --enable-ladspa --enable-libaom --enable-libass --enable-libbluray --enable-libbs2b --enable-libcaca --enable-libcdio --enable-libcodec2 --enable-libflite --enable-libfontconfig --enable-libfreetype --enable-libfribidi --enable-libgme --enable-libgsm --enable-libjack --enable-libmp3lame --enable-libmysofa --enable-libopenjpeg --enable-libopenmpt --enable-libopus --enable-libpulse --enable-librsvg --enable-librubberband --enable-libshine --enable-libsnappy --enable-libsoxr --enable-libspeex --enable-libssh --enable-libtheora --enable-libtwolame --enable-libvidstab --enable-libvorbis --enable-libvpx --enable-libwavpack --enable-libwebp --enable-libx265 --enable-libxml2 --enable-libxvid --enable-libzmq --enable-libzvbi --enable-lv2 --enable-omx --enable-openal --enable-opengl --enable-sdl2 --enable-libdc1394 --enable-libdrm --enable-libiec61883 --enable-chromaprint --enable-frei0r --enable-libx264 --enable-shared
  5. libavutil 56. 31.100 / 56. 31.100
  6. libavcodec 58. 54.100 / 58. 54.100
  7. libavformat 58. 29.100 / 58. 29.100
  8. libavdevice 58. 8.100 / 58. 8.100
  9. libavfilter 7. 57.100 / 7. 57.100
  10. libavresample 4. 0. 0 / 4. 0. 0
  11. libswscale 5. 5.100 / 5. 5.100
  12. libswresample 3. 5.100 / 3. 5.100
  13. libpostproc 55. 5.100 / 55. 5.100
  14. Input #0, mpegts, from '00020.MTS':
  15. Duration: 00:02:55.78, start: 1.040000, bitrate: 22477 kb/s
  16. Program 1
  17. Stream #0:0[0x1011]: Video: h264 (High) (HDMV / 0x564D4448), yuv420p(top first), 1920x1080 [SAR 1:1 DAR 16:9], 25 fps, 50 tbr, 90k tbn, 50 tbc
  18. Stream #0:1[0x1100]: Audio: ac3 (AC-3 / 0x332D4341), 48000 Hz, stereo, fltp, 256 kb/s
  19. Stream #0:2[0x1200]: Subtitle: hdmv_pgs_subtitle ([144][0][0][0] / 0x0090), 1920x1080
RAW Paste Data