GrabHD

Untitled

Apr 13th, 2020
16
Never
Not a member of Pastebin yet? Sign Up, it unlocks many cool features!
  1. Format: Matroska
  2. Format version: Version 4 / Version 2
  3. File size: 3.09 GiB
  4. Duration: 1 h 14 min
  5. Overall bit rate: 5 907 kb/s
  6. Movie name: ELEKTRI4KA.UNIONGANG
  7. Encoded date: UTC 2020-04-13 14:55:23
  8. Writing application: mkvmerge v8.3.0 ('Over the Horizon') 64bit
  9. Writing library: libebml v1.3.1 + libmatroska v1.4.2
  10.  
  11. Video
  12. ID: 1
  13. Format: AVC
  14. Format/Info: Advanced Video Codec
  15. Format profile: High@L4
  16. Format settings, CABAC: Yes
  17. Format settings, Reference frames: 4 frames
  18. Codec ID: V_MPEG4/ISO/AVC
  19. Duration: 1 h 14 min
  20. Bit rate: 5 137 kb/s
  21. Width: 1 912 pixels
  22. Height: 1 072 pixels
  23. Display aspect ratio: 16:9
  24. Frame rate mode: Constant
  25. Frame rate: 23.976 (24000/1001) FPS
  26. Color space: YUV
  27. Chroma subsampling: 4:2:0
  28. Bit depth: 8 bits
  29. Scan type: Progressive
  30. Bits/(Pixel*Frame): 0.105
  31. Stream size: 2.69 GiB (87%)
  32. Language: English
  33. Default: Yes
  34. Forced: No
  35. Color range: Limited
  36. Color primaries: BT.709
  37. Transfer characteristics: BT.709
  38. Matrix coefficients: BT.709
  39.  
  40. Audio #1
  41. ID: 2
  42. Format: AC-3
  43. Format/Info: Audio Coding 3
  44. Mode extension: CM (complete main)
  45. Format settings, Endianness: Big
  46. Codec ID: A_AC3
  47. Duration: 1 h 14 min
  48. Bit rate mode: Constant
  49. Bit rate: 384 kb/s
  50. Channel(s): 6 channels
  51. Channel positions: Front: L C R, Side: L R, LFE
  52. Sampling rate: 48.0 kHz
  53. Frame rate: 31.250 FPS (1536 spf)
  54. Bit depth: 16 bits
  55. Compression mode: Lossy
  56. Delay relative to video: -42 ms
  57. Stream size: 206 MiB (6%)
  58. Title: iTunes
  59. Language: Russian
  60. Default: Yes
  61. Forced: No
  62.  
  63. Audio #2
  64. ID: 3
  65. Format: AC-3
  66. Format/Info: Audio Coding 3
  67. Mode extension: CM (complete main)
  68. Format settings, Endianness: Big
  69. Codec ID: A_AC3
  70. Duration: 1 h 14 min
  71. Bit rate mode: Constant
  72. Bit rate: 384 kb/s
  73. Channel(s): 6 channels
  74. Channel positions: Front: L C R, Side: L R, LFE
  75. Sampling rate: 48.0 kHz
  76. Frame rate: 31.250 FPS (1536 spf)
  77. Bit depth: 16 bits
  78. Compression mode: Lossy
  79. Delay relative to video: -42 ms
  80. Stream size: 206 MiB (7%)
  81. Language: English
  82. Default: No
  83. Forced: No
  84.  
  85. Text
  86. ID: 4
  87. Format: UTF-8
  88. Codec ID: S_TEXT/UTF8
  89. Codec ID/Info: UTF-8 Plain Text
  90. Duration: 1 h 13 min
  91. Bit rate: 115 b/s
  92. Count of elements: 1413
  93. Stream size: 61.9 KiB (0%)
  94. Language: English
  95. Default: Yes
  96. Forced: No
  97.  
  98. Menu
  99. 00:00:00.000: en:1
  100. 00:09:54.000: en:2
  101. 00:19:15.000: en:3
  102. 00:27:05.000: en:4
  103. 00:36:36.000: en:5
  104. 00:46:48.000: en:6
  105. 00:54:23.000: en:7
  106. 01:03:41.000: en:8
  107. 01:12:10.000: en:9
RAW Paste Data