SHARE
TWEET

Metadata

a guest Sep 12th, 2017 18 Never
Not a member of Pastebin yet? Sign Up, it unlocks many cool features!
  1. General
  2. Unique ID                   : 73834380157141578875980048943384447005 (0x378BFBFF79A17BA3DDD6443709F9481D)
  3. Complete name               : C:\Users\1\Desktop\Video Archive\1996\title02.mkv
  4. Format                      : Matroska
  5. Format version              : Version 2
  6. File size                   : 486 MiB
  7. Duration                    : 13 min 4 s
  8. Overall bit rate mode       : Variable
  9. Overall bit rate            : 5 198 kb/s
  10. Encoded date                : UTC 2017-09-11 10:21:27
  11. Writing application         : MakeMKV v1.10.7 win(x64-release)
  12. Writing library             : libmakemkv v1.10.7 (1.3.3/1.4.4) win(x64-release)
  13. Original source medium      : DVD-Video
  14.  
  15. Video
  16. ID                          : 1
  17. ID in the original source m : 224 (0xE0)
  18. Format                      : MPEG Video
  19. Format version              : Version 2
  20. Format profile              : Main@Main
  21. Format settings, BVOP       : Yes
  22. Format settings, Matrix     : Default
  23. Format settings, GOP        : M=3, N=12
  24. Format settings, picture st : Frame
  25. Codec ID                    : V_MPEG2
  26. Codec ID/Info               : MPEG 1 or 2 Video
  27. Duration                    : 13 min 4 s
  28. Bit rate mode               : Variable
  29. Bit rate                    : 5 001 kb/s
  30. Maximum bit rate            : 9 586 kb/s
  31. Width                       : 720 pixels
  32. Height                      : 576 pixels
  33. Display aspect ratio        : 4:3
  34. Frame rate mode             : Constant
  35. Frame rate                  : 25.000 FPS
  36. Standard                    : PAL
  37. Color space                 : YUV
  38. Chroma subsampling          : 4:2:0
  39. Bit depth                   : 8 bits
  40. Scan type                   : Interlaced
  41. Scan order                  : Bottom Field First
  42. Compression mode            : Lossy
  43. Bits/(Pixel*Frame)          : 0.482
  44. Time code of first frame    : 00:00:00:00
  45. Time code source            : Group of pictures header
  46. GOP, Open/Closed            : Open
  47. GOP, Open/Closed of first f : Closed
  48. Stream size                 : 468 MiB (96%)
  49. Language                    : English
  50. Default                     : No
  51. Forced                      : No
  52.  
  53. Audio
  54. ID                          : 2
  55. ID in the original source m : 189 (0xBD)-128 (0x80)
  56. Format                      : AC-3
  57. Format/Info                 : Audio Coding 3
  58. Mode extension              : CM (complete main)
  59. Format settings, Endianness : Big
  60. Codec ID                    : A_AC3
  61. Duration                    : 13 min 4 s
  62. Bit rate mode               : Constant
  63. Bit rate                    : 192 kb/s
  64. Channel(s)                  : 2 channels
  65. Channel positions           : Front: L R
  66. Sampling rate               : 48.0 kHz
  67. Frame rate                  : 31.250 FPS (1536 spf)
  68. Bit depth                   : 16 bits
  69. Compression mode            : Lossy
  70. Stream size                 : 18.0 MiB (4%)
  71. Title                       : Stereo
  72. Language                    : English
  73. Default                     : Yes
  74. Forced                      : No
RAW Paste Data
We use cookies for various purposes including analytics. By continuing to use Pastebin, you agree to our use of cookies as described in the Cookies Policy. OK, I Understand
 
Top