threecaptain

Sakasama no Patema mediainfo

Aug 19th, 2017
385
Never
Not a member of Pastebin yet? Sign Up, it unlocks many cool features!
  1. General
  2. Unique ID : 244059732791010885836153784904242623116 (0xB79C31DBCCDCA3A29878D81DA0E2F28C)
  3. Complete name : C:\Users\User\Downloads\Sakasama.no.Patema.2013.1080p.BluRay.x264.DTS-WiKi\Sakasama no Patema\Sakasama no Patema (2013) [1080p] [x264] [Bluray] [DTS] [MULTI-SUB].mkv
  4. Format : Matroska
  5. Format version : Version 4 / Version 2
  6. File size : 5.92 GiB
  7. Duration : 1 h 38 min
  8. Overall bit rate : 8 569 kb/s
  9. Movie name : Patema Inverted
  10. Encoded date : UTC 2017-08-19 06:01:51
  11. Writing application : mkvmerge v14.0.0 ('Flow') 64bit
  12. Writing library : libebml v1.3.4 + libmatroska v1.4.5
  13. Attachments : NotoSans-Bold.ttf / NotoSans-BoldItalic.ttf / BuxtonSketch.ttf / 鏂规绮楀畫_GBK.ttf / 鏂规鍏颁涵涓粦_GBK.TTF / 鏂规鍑嗗渾_GBK.TTF / 鏂规缁艰壓_GBK.ttf / EPSON 澶鏇镐綋B.ttf / 閺傝顒滅划妤€鐣玙GBK.ttf / 閺傝顒滈崗棰佹兜娑擃參绮GBK.TTF / 閺傝顒滈崙鍡楁妇_GBK.TTF / 閺傝顒滅紒鑹板_GBK.ttf
  14.  
  15. Video
  16. ID : 1
  17. Format : AVC
  18. Format/Info : Advanced Video Codec
  19. Format profile : High 10@L5.1
  20. Format settings, CABAC : Yes
  21. Format settings, RefFrames : 16 frames
  22. Codec ID : V_MPEG4/ISO/AVC
  23. Duration : 1 h 38 min
  24. Bit rate : 6 977 kb/s
  25. Width : 1 920 pixels
  26. Height : 1 080 pixels
  27. Display aspect ratio : 16:9
  28. Frame rate mode : Constant
  29. Frame rate : 23.976 (24000/1001) FPS
  30. Color space : YUV
  31. Chroma subsampling : 4:2:0
  32. Bit depth : 10 bits
  33. Scan type : Progressive
  34. Bits/(Pixel*Frame) : 0.140
  35. Stream size : 4.82 GiB (81%)
  36. Title : H.264 (10-bit)
  37. Writing library : x264 core 140 r2377+40 929f149 tMod [10-bit@all X86_64]
  38. Encoding settings : cabac=1 / ref=16 / deblock=1:0:0 / analyse=0x3:0x133 / me=umh / subme=10 / psy=1 / fade_compensate=0.90 / psy_rd=0.90:0.05 / mixed_ref=1 / me_range=24 / chroma_me=1 / trellis=2 / 8x8dct=1 / cqm=0 / deadzone=21,11 / fast_pskip=1 / chroma_qp_offset=-3 / threads=12 / lookahead_threads=2 / sliced_threads=0 / nr=0 / decimate=1 / interlaced=0 / bluray_compat=0 / constrained_intra=0 / fgo=0 / bframes=8 / b_pyramid=2 / b_adapt=2 / b_bias=0 / direct=3 / weightb=1 / open_gop=0 / weightp=2 / keyint=250 / keyint_min=23 / scenecut=40 / intra_refresh=0 / rc_lookahead=60 / rc=crf / mbtree=1 / crf=15.7000 / qcomp=0.75 / qpmin=0:0:0 / qpmax=81:81:81 / qpstep=4 / ip_ratio=1.40 / aq=3:0.85 / aq-sensitivity=10.00 / aq-factor=1.00:1.00:1.00 / aq2=0 / aq3=0
  39. Language : Japanese
  40. Default : Yes
  41. Forced : No
  42. Color range : Limited
  43. Matrix coefficients : BT.709
  44.  
  45. Audio
  46. ID : 3
  47. Format : DTS
  48. Format/Info : Digital Theater Systems
  49. Mode : 16
  50. Format settings, Endianness : Big
  51. Codec ID : A_DTS
  52. Duration : 1 h 38 min
  53. Bit rate mode : Constant
  54. Bit rate : 1 509 kb/s
  55. Channel(s) : 6 channels
  56. Channel positions : Front: L C R, Side: L R, LFE
  57. Sampling rate : 48.0 kHz
  58. Frame rate : 93.750 FPS (512 SPF)
  59. Bit depth : 24 bits
  60. Compression mode : Lossy
  61. Stream size : 1.04 GiB (18%)
  62. Title : Japanese 5.1 DTS
  63. Language : Japanese
  64. Default : Yes
  65. Forced : No
  66.  
  67. Text #1
  68. ID : 2
  69. Format : ASS
  70. Codec ID : S_TEXT/ASS
  71. Codec ID/Info : Advanced Sub Station Alpha
  72. Duration : 1 h 36 min
  73. Bit rate : 55 b/s
  74. Count of elements : 745
  75. Compression mode : Lossless
  76. Stream size : 39.2 KiB (0%)
  77. Title : English
  78. Language : English
  79. Default : Yes
  80. Forced : No
  81.  
  82. Text #2
  83. ID : 4
  84. Format : ASS
  85. Codec ID : S_TEXT/ASS
  86. Codec ID/Info : Advanced Sub Station Alpha
  87. Duration : 1 h 37 min
  88. Bit rate : 73 b/s
  89. Count of elements : 981
  90. Compression mode : Lossless
  91. Stream size : 52.5 KiB (0%)
  92. Language : Japanese
  93. Default : No
  94. Forced : No
  95.  
  96. Text #3
  97. ID : 5
  98. Format : ASS
  99. Codec ID : S_TEXT/ASS
  100. Codec ID/Info : Advanced Sub Station Alpha
  101. Duration : 1 h 37 min
  102. Bit rate : 73 b/s
  103. Count of elements : 981
  104. Compression mode : Lossless
  105. Stream size : 52.5 KiB (0%)
  106. Language : Chinese
  107. Default : No
  108. Forced : No
  109.  
  110. Menu
  111. 00:00:00.000 : en:Chapter 1
  112. 00:07:46.883 : en:Chapter 2
  113. 00:13:11.541 : en:Chapter 3
  114. 00:21:30.789 : en:Chapter 4
  115. 00:25:52.551 : en:Chapter 5
  116. 00:32:02.129 : en:Chapter 6
  117. 00:37:09.436 : en:Chapter 7
  118. 00:44:14.527 : en:Chapter 8
  119. 00:52:14.757 : en:Chapter 9
  120. 00:56:54.953 : en:Chapter 10
  121. 01:03:51.953 : en:Chapter 11
  122. 01:11:01.174 : en:Chapter 12
  123. 01:19:04.073 : en:Chapter 13
  124. 01:25:03.265 : en:Chapter 14
  125. 01:32:39.554 : en:Chapter 15
RAW Paste Data