SHARE
TWEET

Untitled

a guest Jan 23rd, 2020 116 Never
Not a member of Pastebin yet? Sign Up, it unlocks many cool features!
  1. Exact Audio Copy V1.3 from 2. September 2016
  2.  
  3. EAC extraction logfile from 22. January 2020, 18:13
  4.  
  5. ABBA / Gold: Greatest Hits
  6.  
  7. Used drive  : HL-DT-STDVDRAM GP65NG60   Adapter: 1  ID: 0
  8.  
  9. Read mode               : Secure
  10. Utilize accurate stream : Yes
  11. Defeat audio cache      : Yes
  12. Make use of C2 pointers : No
  13.  
  14. Read offset correction                      : 6
  15. Overread into Lead-In and Lead-Out          : No
  16. Fill up missing offset samples with silence : Yes
  17. Delete leading and trailing silent blocks   : No
  18. Null samples used in CRC calculations       : Yes
  19. Used interface                              : Native Win32 interface for Win NT & 2000
  20. Gap handling                                : Appended to previous track
  21.  
  22. Used output format              : User Defined Encoder
  23. Selected bitrate                : 128 kBit/s
  24. Quality                         : High
  25. Add ID3 tag                     : No
  26. Command line compressor         : C:\Program Files (x86)\Exact Audio Copy\Flac\flac.exe
  27. Additional command line options : -8 -V -T "ARTIST=%artist%" -T "TITLE=%title%" -T "ALBUM=%albumtitle%" -T "DATE=%year%" -T "TRACKNUMBER=%tracknr%" -T "GENRE=%genre%" -T "PERFORMER=%albuminterpret%" -T "COMPOSER=%composer%" %haslyrics%--tag-from-file=LYRICS="%lyricsfile%"%haslyrics% -T "ALBUMARTIST=%albumartist%" -T "DISCNUMBER=%cdnumber%" -T "TOTALDISCS=%totalcds%" -T "TOTALTRACKS=%numtracks%" -T "COMMENT=%comment%" %source% -o %dest%
  28.  
  29.  
  30. TOC of the extracted CD
  31.  
  32.      Track |   Start  |  Length  | Start sector | End sector
  33.     ---------------------------------------------------------
  34.         1  |  0:00.00 |  3:52.15 |         0    |    17414  
  35.         2  |  3:52.15 |  4:02.17 |     17415    |    35581  
  36.         3  |  7:54.32 |  4:04.35 |     35582    |    53916  
  37.         4  | 11:58.67 |  3:33.38 |     53917    |    69929  
  38.         5  | 15:32.30 |  4:34.25 |     69930    |    90504  
  39.         6  | 20:06.55 |  4:14.20 |     90505    |   109574  
  40.         7  | 24:21.00 |  4:44.05 |    109575    |   130879  
  41.         8  | 29:05.05 |  4:55.40 |    130880    |   153044  
  42.         9  | 34:00.45 |  3:08.25 |    153045    |   167169  
  43.        10  | 37:08.70 |  3:21.32 |    167170    |   182276  
  44.        11  | 40:30.27 |  5:26.20 |    182277    |   206746  
  45.        12  | 45:56.47 |  4:13.48 |    206747    |   225769  
  46.        13  | 50:10.20 |  4:22.35 |    225770    |   245454  
  47.        14  | 54:32.55 |  4:48.60 |    245455    |   267114  
  48.        15  | 59:21.40 |  3:15.20 |    267115    |   281759  
  49.        16  | 62:36.60 |  3:58.02 |    281760    |   299611  
  50.        17  | 66:34.62 |  4:00.00 |    299612    |   317611  
  51.        18  | 70:34.62 |  3:51.38 |    317612    |   334974  
  52.        19  | 74:26.25 |  2:42.72 |    334975    |   347196  
  53.  
  54.  
  55. Track  1
  56.  
  57.      Filename E:\Music\ABBA\Gold Greatest Hits\01 Dancing Queen.wav
  58.  
  59.      Pre-gap length  0:00:02.00
  60.  
  61.      Peak level 91.7 %
  62.      Extraction speed 3.0 X
  63.      Track quality 100.0 %
  64.      Test CRC 56C8D496
  65.      Copy CRC 56C8D496
  66.      Accurately ripped (confidence 49)  [41875CDD]  (AR v2)
  67.      Copy OK
  68.  
  69. Track  2
  70.  
  71.      Filename E:\Music\ABBA\Gold Greatest Hits\02 Knowing Me, Knowing You.wav
  72.  
  73.      Pre-gap length  0:00:01.50
  74.  
  75.      Peak level 96.4 %
  76.      Extraction speed 3.3 X
  77.      Track quality 100.0 %
  78.      Test CRC 3A2CA7A9
  79.      Copy CRC 3A2CA7A9
  80.      Accurately ripped (confidence 48)  [CBE936E0]  (AR v2)
  81.      Copy OK
  82.  
  83. Track  3
  84.  
  85.      Filename E:\Music\ABBA\Gold Greatest Hits\03 Take a Chance on Me.wav
  86.  
  87.      Pre-gap length  0:00:01.62
  88.  
  89.      Peak level 95.3 %
  90.      Extraction speed 3.6 X
  91.      Track quality 100.0 %
  92.      Test CRC C691B68C
  93.      Copy CRC C691B68C
  94.      Accurately ripped (confidence 48)  [4F4F32CF]  (AR v2)
  95.      Copy OK
  96.  
  97. Track  4
  98.  
  99.      Filename E:\Music\ABBA\Gold Greatest Hits\04 Mamma Mia.wav
  100.  
  101.      Pre-gap length  0:00:01.45
  102.  
  103.      Peak level 94.9 %
  104.      Extraction speed 3.7 X
  105.      Track quality 100.0 %
  106.      Test CRC D11609EB
  107.      Copy CRC D11609EB
  108.      Accurately ripped (confidence 48)  [226B0C87]  (AR v2)
  109.      Copy OK
  110.  
  111. Track  5
  112.  
  113.      Filename E:\Music\ABBA\Gold Greatest Hits\05 Lay All Your Love on Me.wav
  114.  
  115.      Pre-gap length  0:00:01.30
  116.  
  117.      Peak level 97.8 %
  118.      Extraction speed 4.1 X
  119.      Track quality 100.0 %
  120.      Test CRC F9F96646
  121.      Copy CRC F9F96646
  122.      Accurately ripped (confidence 50)  [27204E92]  (AR v2)
  123.      Copy OK
  124.  
  125. Track  6
  126.  
  127.      Filename E:\Music\ABBA\Gold Greatest Hits\06 Super Trouper.wav
  128.  
  129.      Pre-gap length  0:00:01.50
  130.  
  131.      Peak level 98.2 %
  132.      Extraction speed 3.6 X
  133.      Track quality 99.9 %
  134.      Test CRC EEF5768F
  135.      Copy CRC EEF5768F
  136.      Accurately ripped (confidence 50)  [A2A802DB]  (AR v2)
  137.      Copy OK
  138.  
  139. Track  7
  140.  
  141.      Filename E:\Music\ABBA\Gold Greatest Hits\07 I Have a Dream.wav
  142.  
  143.      Pre-gap length  0:00:01.60
  144.  
  145.      Peak level 92.5 %
  146.      Extraction speed 4.6 X
  147.      Track quality 100.0 %
  148.      Test CRC BDB27DFF
  149.      Copy CRC BDB27DFF
  150.      Accurately ripped (confidence 46)  [F1EE401E]  (AR v2)
  151.      Copy OK
  152.  
  153. Track  8
  154.  
  155.      Filename E:\Music\ABBA\Gold Greatest Hits\08 The Winner Takes It All.wav
  156.  
  157.      Pre-gap length  0:00:01.18
  158.  
  159.      Peak level 94.3 %
  160.      Extraction speed 4.8 X
  161.      Track quality 100.0 %
  162.      Test CRC B7F3CE0E
  163.      Copy CRC B7F3CE0E
  164.      Accurately ripped (confidence 48)  [9C52D2F3]  (AR v2)
  165.      Copy OK
  166.  
  167. Track  9
  168.  
  169.      Filename E:\Music\ABBA\Gold Greatest Hits\09 Money, Money, Money.wav
  170.  
  171.      Pre-gap length  0:00:02.08
  172.  
  173.      Peak level 95.7 %
  174.      Extraction speed 4.6 X
  175.      Track quality 100.0 %
  176.      Test CRC 6AF721D5
  177.      Copy CRC 6AF721D5
  178.      Accurately ripped (confidence 47)  [8471F8B1]  (AR v2)
  179.      Copy OK
  180.  
  181. Track 10
  182.  
  183.      Filename E:\Music\ABBA\Gold Greatest Hits\10 S.O.S..wav
  184.  
  185.      Pre-gap length  0:00:01.23
  186.  
  187.      Peak level 96.7 %
  188.      Extraction speed 4.8 X
  189.      Track quality 100.0 %
  190.      Test CRC 8466C650
  191.      Copy CRC 8466C650
  192.      Accurately ripped (confidence 46)  [8A40A9B6]  (AR v2)
  193.      Copy OK
  194.  
  195. Track 11
  196.  
  197.      Filename E:\Music\ABBA\Gold Greatest Hits\11 Chiquitita.wav
  198.  
  199.      Pre-gap length  0:00:00.45
  200.  
  201.      Peak level 98.2 %
  202.      Extraction speed 5.3 X
  203.      Track quality 100.0 %
  204.      Test CRC C7F852B6
  205.      Copy CRC C7F852B6
  206.      Accurately ripped (confidence 46)  [F8D05C92]  (AR v2)
  207.      Copy OK
  208.  
  209. Track 12
  210.  
  211.      Filename E:\Music\ABBA\Gold Greatest Hits\12 Fernando.wav
  212.  
  213.      Pre-gap length  0:00:00.50
  214.  
  215.      Peak level 92.9 %
  216.      Extraction speed 4.5 X
  217.      Track quality 99.9 %
  218.      Test CRC 115DA799
  219.      Copy CRC 115DA799
  220.      Accurately ripped (confidence 46)  [BE9CA42D]  (AR v2)
  221.      Copy OK
  222.  
  223. Track 13
  224.  
  225.      Filename E:\Music\ABBA\Gold Greatest Hits\13 Voulez vous.wav
  226.  
  227.      Pre-gap length  0:00:01.65
  228.  
  229.      Peak level 93.2 %
  230.      Extraction speed 5.6 X
  231.      Track quality 100.0 %
  232.      Test CRC FDB21CBA
  233.      Copy CRC FDB21CBA
  234.      Accurately ripped (confidence 47)  [05E49C28]  (AR v2)
  235.      Copy OK
  236.  
  237. Track 14
  238.  
  239.      Filename E:\Music\ABBA\Gold Greatest Hits\14 Gimme! Gimme! Gimme! (A Man After Midnight).wav
  240.  
  241.      Pre-gap length  0:00:01.63
  242.  
  243.      Peak level 92.9 %
  244.      Extraction speed 5.0 X
  245.      Track quality 99.9 %
  246.      Test CRC 5488268A
  247.      Copy CRC 5488268A
  248.      Accurately ripped (confidence 47)  [A3C43E16]  (AR v2)
  249.      Copy OK
  250.  
  251. Track 15
  252.  
  253.      Filename E:\Music\ABBA\Gold Greatest Hits\15 Does Your Mother Know.wav
  254.  
  255.      Pre-gap length  0:00:01.30
  256.  
  257.      Peak level 96.7 %
  258.      Extraction speed 5.6 X
  259.      Track quality 100.0 %
  260.      Test CRC A7406584
  261.      Copy CRC A7406584
  262.      Accurately ripped (confidence 47)  [33E922A4]  (AR v2)
  263.      Copy OK
  264.  
  265. Track 16
  266.  
  267.      Filename E:\Music\ABBA\Gold Greatest Hits\16 One of Us.wav
  268.  
  269.      Pre-gap length  0:00:01.25
  270.  
  271.      Peak level 90.2 %
  272.      Extraction speed 5.0 X
  273.      Track quality 99.9 %
  274.      Test CRC 45B36458
  275.      Copy CRC 45B36458
  276.      Accurately ripped (confidence 45)  [D5E5E25D]  (AR v2)
  277.      Copy OK
  278.  
  279. Track 17
  280.  
  281.      Filename E:\Music\ABBA\Gold Greatest Hits\17 The Name of the Game.wav
  282.  
  283.      Pre-gap length  0:00:01.27
  284.  
  285.      Peak level 94.7 %
  286.      Extraction speed 5.1 X
  287.      Track quality 99.9 %
  288.      Test CRC 279C4553
  289.      Copy CRC 279C4553
  290.      Accurately ripped (confidence 42)  [FCA32482]  (AR v2)
  291.      Copy OK
  292.  
  293. Track 18
  294.  
  295.      Filename E:\Music\ABBA\Gold Greatest Hits\18 Thank You for the Music.wav
  296.  
  297.      Pre-gap length  0:00:01.62
  298.  
  299.      Peak level 93.9 %
  300.      Extraction speed 6.2 X
  301.      Track quality 100.0 %
  302.      Test CRC B1D6AA17
  303.      Copy CRC B1D6AA17
  304.      Accurately ripped (confidence 39)  [D8E323E7]  (AR v2)
  305.      Copy OK
  306.  
  307. Track 19
  308.  
  309.      Filename E:\Music\ABBA\Gold Greatest Hits\19 Waterloo.wav
  310.  
  311.      Pre-gap length  0:00:01.20
  312.  
  313.      Peak level 91.1 %
  314.      Extraction speed 5.8 X
  315.      Track quality 100.0 %
  316.      Test CRC 73395DE0
  317.      Copy CRC 73395DE0
  318.      Accurately ripped (confidence 42)  [77A14B82]  (AR v2)
  319.      Copy OK
  320.  
  321.  
  322. All tracks accurately ripped
  323.  
  324. No errors occurred
  325.  
  326. End of status report
  327.  
  328. ---- CUETools DB Plugin V2.1.6
  329.  
  330. [CTDB TOCID: sGzwK3E7MFX6oIgYivPf6nQ3MBs-] found
  331. Submit result: sGzwK3E7MFX6oIgYivPf6nQ3MBs- has been confirmed
  332. Track | CTDB Status
  333.   1   | (2665/2937) Accurately ripped, or (2/2937) differs in 29398 samples @00:47:17-00:47:42
  334.   2   | (2687/2937) Accurately ripped
  335.   3   | (2694/2937) Accurately ripped
  336.   4   | (2697/2937) Accurately ripped
  337.   5   | (2697/2937) Accurately ripped
  338.   6   | (2693/2937) Accurately ripped
  339.   7   | (2698/2937) Accurately ripped
  340.   8   | (2689/2937) Accurately ripped, or (2/2937) differs in 12 samples @02:28:61-02:28:62
  341.   9   | (2691/2937) Accurately ripped, or (2/2937) differs in 1 samples @02:25:63
  342.  10   | ( 75/2937) Accurately ripped, or (470/2937) differs in 24 samples @01:04:39,01:04:51, or (14/2937) differs in 18 samples @01:04:39, or (1800/2937) differs in 18 samples @01:04:39, or (2/2937) differs in 18 samples @01:04:39, or (2/2937) differs in 18 samples @01:04:39
  343.  11   | (2674/2937) Accurately ripped
  344.  12   | (2677/2937) Accurately ripped
  345.  13   | (2676/2937) Accurately ripped, or (2/2937) differs in 1176 samples @02:32:51-02:32:52
  346.  14   | (2658/2937) Accurately ripped, or (2/2937) differs in 7 samples @00:49:12,03:34:52
  347.  15   | (2651/2937) Accurately ripped, or (2/2937) differs in 1184 samples @01:01:72-01:01:73,01:54:19,03:11:27
  348.  16   | (2640/2937) Accurately ripped, or (2/2937) differs in 1424 samples @01:52:00-01:52:01,02:42:19-02:42:20,03:32:64-03:32:65
  349.  17   | (2643/2937) Accurately ripped, or (2/2937) differs in 22 samples @02:45:21-02:45:22
  350.  18   | (2616/2937) Accurately ripped
  351.  19   | (2626/2937) Accurately ripped, or (2/2937) differs in 850 samples @01:01:18-01:01:19,01:02:10-01:02:11,01:14:27-01:14:28,02:20:14-02:20:15,02:39:47-02:39:48
  352. If you are sure that your rip contains errors, you can use CUETools to repair it.
  353.  
  354.  
  355. ==== Log checksum 0BFD817A68FC97F5407A103F8241BE7321E1F386FA7AA460940BBF6E614B5249 ====
RAW Paste Data
We use cookies for various purposes including analytics. By continuing to use Pastebin, you agree to our use of cookies as described in the Cookies Policy. OK, I Understand
Top