SHARE
TWEET

September Storm (1960)

NghtCptn Aug 17th, 2019 67 Never
Not a member of Pastebin yet? Sign Up, it unlocks many cool features!
  1. QUICK SUMMARY:
  2.  
  3. Disc Title: September_Storm_3D
  4. Disc Size: 42,911,064,241 bytes
  5. Protection: AACS
  6. BD-Java: No
  7. Playlist: 01001.MPLS
  8. Size: 26,225,958,912 bytes
  9. Length: 1:31:50.171
  10. Total Bitrate: 38.08 Mbps
  11. Video: MPEG-4 AVC Video / 22884 kbps / Left Eye / 1080p / 23.976 fps / 16:9 / High Profile 4.1
  12. Video: MPEG-4 MVC Video / 11567 kbps / Right Eye
  13. Audio: English / DTS-HD Master Audio / 2.0 / 48 kHz / 1625 kbps / 16-bit (DTS Core: 2.0 / 48 kHz / 1509 kbps / 16-bit)
  14.  
  15. General
  16. Unique ID                                : 161170629883466062174414899677080576208 (0x7940558FC232C3C2E633B1FD1887E0D0)
  17. Complete name                            : J:\x\REMUX\September Storm\September.Storm.1960.1080p.BluRay.REMUX.AVC.FLAC.2.0-BLURANiUM.mkv
  18. Format                                   : Matroska
  19. Format version                           : Version 4 / Version 2
  20. File size                                : 14.9 GiB
  21. Duration                                 : 1 h 31 min
  22. Overall bit rate mode                    : Variable
  23. Overall bit rate                         : 23.2 Mb/s
  24. Movie name                               : September Storm (1960)
  25. Encoded date                             : UTC 2019-08-18 03:40:39
  26. Writing application                      : mkvmerge v36.0.0 ('Is That Jazz?') 64-bit
  27. Writing library                          : libebml v1.3.9 + libmatroska v1.5.2
  28.  
  29. Video
  30. ID                                       : 1
  31. Format                                   : AVC
  32. Format/Info                              : Advanced Video Codec
  33. Format profile                           : High@L4.1
  34. Format settings                          : CABAC / 2 Ref Frames
  35. Format settings, CABAC                   : Yes
  36. Format settings, RefFrames               : 2 frames
  37. Format settings, GOP                     : M=1, N=5
  38. Codec ID                                 : V_MPEG4/ISO/AVC
  39. Duration                                 : 1 h 31 min
  40. Bit rate mode                            : Variable
  41. Bit rate                                 : 22.9 Mb/s
  42. Maximum bit rate                         : 35.2 Mb/s
  43. Width                                    : 1 920 pixels
  44. Height                                   : 1 080 pixels
  45. Display aspect ratio                     : 16:9
  46. Frame rate mode                          : Constant
  47. Frame rate                               : 23.976 (24000/1001) FPS
  48. Color space                              : YUV
  49. Chroma subsampling                       : 4:2:0
  50. Bit depth                                : 8 bits
  51. Scan type                                : Progressive
  52. Bits/(Pixel*Frame)                       : 0.460
  53. Stream size                              : 14.7 GiB (99%)
  54. Title                                    : MPEG-4 AVC Video / 22884 kbps / Left Eye / 1080p / 23.976 fps / 16:9 / High Profile 4.1
  55. Language                                 : English
  56. Default                                  : Yes
  57. Forced                                   : No
  58.  
  59. Audio
  60. ID                                       : 2
  61. Format                                   : FLAC
  62. Format/Info                              : Free Lossless Audio Codec
  63. Codec ID                                 : A_FLAC
  64. Duration                                 : 1 h 31 min
  65. Bit rate mode                            : Variable
  66. Bit rate                                 : 289 kb/s
  67. Channel(s)                               : 2 channels
  68. Channel positions                        : Front: L R
  69. Sampling rate                            : 48.0 kHz
  70. Frame rate                               : 11.719 FPS (4096 SPF)
  71. Bit depth                                : 16 bits
  72. Stream size                              : 190 MiB (1%)
  73. Title                                    : FLAC Audio / 2.0 / 48 kHz / 289 kbps / 16-bit
  74. Writing library                          : libFLAC 1.2.1 (UTC 2007-09-17)
  75. Language                                 : English
  76. Default                                  : Yes
  77. Forced                                   : Yes
  78.  
  79. Menu
  80. 00:00:00.000                             : en:Chapter 01
  81. 00:06:16.334                             : en:Chapter 02
  82. 00:13:45.783                             : en:Chapter 03
  83. 00:28:53.899                             : en:Chapter 04
  84. 00:38:48.618                             : en:Chapter 05
  85. 00:44:13.818                             : en:Chapter 06
  86. 00:56:40.772                             : en:Chapter 07
  87. 01:03:24.092                             : en:Chapter 08
  88. 01:13:33.326                             : en:Chapter 09
  89. 01:24:56.341                             : en:Chapter 10
  90.  
  91. eac3to v3.34
  92. command line: eac3to  V:\ 1) 2:September.Storm.h264 1:Chapters.txt 4:Main.Audio.flac
  93. ------------------------------------------------------------------------------
  94. M2TS, 2 video tracks, 1 audio track, 1:31:50, 24p /1.001
  95. 1: Chapters, 10 chapters
  96. 2: h264/AVC  (left eye), 1080p24 /1.001 (16:9)
  97. 3: h264/MVC (right eye), 1080p24 /1.001 (16:9)
  98. 4: DTS Master Audio, English, 2.0 channels, 16 bits, 48kHz
  99.    (core: DTS, 2.0 channels, 1509kbps, 48kHz)
  100. Creating file "Chapters.txt"...
  101. [a04] Extracting audio track number 4...
  102. [v02] Extracting video track number 2...
  103. [a04] Decoding with libDcaDec DTS Decoder...
  104. [a04] libDcaDec reported the warning "XLL output not lossless".  <WARNING>
  105. [a04] Encoding FLAC with libFlac...
  106. [v02] Creating file "September.Storm.h264"...
  107. [a04] Creating file "Main.Audio.flac"...
  108. [a04] The original audio track has a constant bit depth of 16 bits.
  109. Video track 2 contains 132112 frames.
  110. Video track 3 contains 132112 frames.
  111. eac3to processing took 6 minutes, 13 seconds.
  112. Done.
RAW Paste Data
We use cookies for various purposes including analytics. By continuing to use Pastebin, you agree to our use of cookies as described in the Cookies Policy. OK, I Understand
 
Top