SHARE
TWEET

Long Shot BluRay 720p

dirtyharrys Jul 19th, 2019 (edited) 77 Never
Not a member of Pastebin yet? Sign Up, it unlocks many cool features!
  1. General
  2. Unique ID                   : 38829049368581465207569572505900506691 (0x1D3633F08A52F806AFBE4B4F07835E43)
  3. Complete name               : E:\QlJSTG9uZ1Nob3Q.mkv
  4. Format                      : Matroska
  5. Format version              : Version 4
  6. File size                   : 2.06 GiB
  7. Duration                    : 2 h 4 min
  8. Overall bit rate            : 2 359 kb/s
  9. Movie name                  : Long Shot BR-RIP / Long Shot BR-RIP
  10. Encoded date                : UTC 2019-07-23 06:23:02
  11. Writing application         : mkvmerge v30.1.0 ('Forever And More') 32-bit
  12. Writing library             : libebml v1.3.6 + libmatroska v1.4.9
  13. Copyright                   : Movies HDs 2019
  14. ARTIST                      : HarshLearner
  15.  
  16. Video
  17. ID                          : 1
  18. Format                      : AVC
  19. Format/Info                 : Advanced Video Codec
  20. Format profile              : High@L4.1
  21. Format settings             : CABAC / 4 Ref Frames
  22. Format settings, CABAC      : Yes
  23. Format settings, ReFrames   : 4 frames
  24. Codec ID                    : V_MPEG4/ISO/AVC
  25. Duration                    : 2 h 4 min
  26. Bit rate                    : 1 500 kb/s
  27. Width                       : 1 280 pixels
  28. Height                      : 536 pixels
  29. Display aspect ratio        : 2.40:1
  30. Frame rate mode             : Constant
  31. Frame rate                  : 23.976 (23976/1000) FPS
  32. Color space                 : YUV
  33. Chroma subsampling          : 4:2:0
  34. Bit depth                   : 8 bits
  35. Scan type                   : Progressive
  36. Bits/(Pixel*Frame)          : 0.091
  37. Stream size                 : 1.31 GiB (64%)
  38. Title                       : Long Shot
  39. Writing library             : x264 core 152 r2851M ba24899
  40. Default                     : Yes
  41. Forced                      : No
  42.  
  43. Audio #1
  44. ID                          : 2
  45. Format                      : AC-3
  46. Format/Info                 : Audio Coding 3
  47. Commercial name             : Dolby Digital
  48. Codec ID                    : A_AC3
  49. Duration                    : 2 h 4 min
  50. Bit rate mode               : Constant
  51. Bit rate                    : 448 kb/s
  52. Channel(s)                  : 6 channels
  53. Channel layout              : L R C LFE Ls Rs
  54. Sampling rate               : 48.0 kHz
  55. Frame rate                  : 31.250 FPS (1536 SPF)
  56. Bit depth                   : 16 bits
  57. Compression mode            : Lossy
  58. Stream size                 : 400 MiB (19%)
  59. Language                    : English
  60. Service kind                : Complete Main
  61. Default                     : No
  62. Forced                      : No
  63.  
  64. Audio #2
  65. ID                          : 3
  66. Format                      : AC-3
  67. Format/Info                 : Audio Coding 3
  68. Commercial name             : Dolby Digital
  69. Codec ID                    : A_AC3
  70. Duration                    : 2 h 4 min
  71. Bit rate mode               : Constant
  72. Bit rate                    : 384 kb/s
  73. Channel(s)                  : 6 channels
  74. Channel layout              : L R C LFE Ls Rs
  75. Sampling rate               : 48.0 kHz
  76. Frame rate                  : 31.250 FPS (1536 SPF)
  77. Bit depth                   : 16 bits
  78. Compression mode            : Lossy
  79. Stream size                 : 343 MiB (16%)
  80. Language                    : Spanish
  81. Service kind                : Complete Main
  82. Default                     : Yes
  83. Forced                      : Yes
  84.  
  85. Text #1
  86. ID                          : 4
  87. Format                      : PGS
  88. Muxing mode                 : zlib
  89. Codec ID                    : S_HDMV/PGS
  90. Codec ID/Info               : Picture based subtitle format used on BDs/HD-DVDs
  91. Duration                    : 1 h 55 min
  92. Bit rate                    : 54.9 kb/s
  93. Count of elements           : 3798
  94. Stream size                 : 45.3 MiB (2%)
  95. Language                    : Spanish
  96. Default                     : No
  97. Forced                      : No
  98.  
  99. Text #2
  100. ID                          : 5
  101. Format                      : PGS
  102. Muxing mode                 : zlib
  103. Codec ID                    : S_HDMV/PGS
  104. Codec ID/Info               : Picture based subtitle format used on BDs/HD-DVDs
  105. Duration                    : 1 h 52 min
  106. Bit rate                    : 771 b/s
  107. Count of elements           : 54
  108. Stream size                 : 636 KiB (0%)
  109. Language                    : Spanish
  110. Default                     : No
  111. Forced                      : No
  112.  
  113. Text #3
  114. ID                          : 6
  115. Format                      : UTF-8
  116. Codec ID                    : S_TEXT/UTF8
  117. Codec ID/Info               : UTF-8 Plain Text
  118. Duration                    : 1 h 55 min
  119. Bit rate                    : 95 b/s
  120. Count of elements           : 2293
  121. Stream size                 : 80.6 KiB (0%)
  122. Language                    : English
  123. Default                     : No
  124. Forced                      : No
  125.  
  126. Text #4
  127. ID                          : 7
  128. Format                      : UTF-8
  129. Codec ID                    : S_TEXT/UTF8
  130. Codec ID/Info               : UTF-8 Plain Text
  131. Duration                    : 1 h 55 min
  132. Bit rate                    : 102 b/s
  133. Count of elements           : 2436
  134. Stream size                 : 86.5 KiB (0%)
  135. Language                    : English
  136. Default                     : No
  137. Forced                      : No
  138.  
  139. Text #5
  140. ID                          : 8
  141. Format                      : UTF-8
  142. Codec ID                    : S_TEXT/UTF8
  143. Codec ID/Info               : UTF-8 Plain Text
  144. Duration                    : 1 h 55 min
  145. Bit rate                    : 82 b/s
  146. Count of elements           : 1894
  147. Stream size                 : 69.7 KiB (0%)
  148. Language                    : Spanish
  149. Default                     : Yes
  150. Forced                      : Yes
  151.  
  152. Menu
  153. 00:00:00.000                : :Chapter 01
  154. 00:05:03.553                : :Chapter 02
  155. 00:16:45.170                : :Chapter 03
  156. 00:27:26.561                : :Chapter 04
  157. 00:31:23.047                : :Chapter 05
  158. 00:40:15.913                : :Chapter 06
  159. 00:45:13.043                : :Chapter 07
  160. 00:54:02.489                : :Chapter 08
  161. 01:02:53.811                : :Chapter 09
  162. 01:12:46.153                : :Chapter 10
  163. 01:17:51.833                : :Chapter 11
  164. 01:26:25.805                : :Chapter 12
  165. 01:33:33.441                : :Chapter 13
  166. 01:40:49.418                : :Chapter 14
  167. 01:50:57.776                : :Chapter 15
  168. 01:54:25.942                : :Chapter 16
RAW Paste Data
We use cookies for various purposes including analytics. By continuing to use Pastebin, you agree to our use of cookies as described in the Cookies Policy. OK, I Understand
 
Top