SHARE
TWEET

2002_8_Mile_Blu-Ray_1080P_DuaL_X265_8Bits_Slow_ChrisHD

ChrisHD13 Jul 21st, 2019 105 Never
Not a member of Pastebin yet? Sign Up, it unlocks many cool features!
  1. Complete name               : F:\2002_8_Mile_Blu-Ray_1080P_DuaL_X265_8Bits_Slow_ChrisHD.mkv
  2. Format                      : Matroska
  3. Format version              : Version 4 / Version 2
  4. File size                   : 5.27 GiB
  5. Duration                    : 1 h 50 min
  6. Overall bit rate            : 6 832 kb/s
  7. Movie name                  : 2002 - 8 Mile [ChrisHD]
  8. Encoded date                : UTC 2019-07-13 05:16:09
  9. Writing application         : mkvmerge v35.0.0 ('All The Love In The World') 64-bit
  10. Writing library             : libebml v1.3.9 + libmatroska v1.5.2
  11.  
  12. Video
  13. ID                          : 1
  14. Format                      : HEVC
  15. Format/Info                 : High Efficiency Video Coding
  16. Format profile              : Main@L4@Main
  17. Codec ID                    : V_MPEGH/ISO/HEVC
  18. Duration                    : 1 h 50 min
  19. Bit rate                    : 4 488 kb/s
  20. Width                       : 1 920 pixels
  21. Height                      : 1 080 pixels
  22. Display aspect ratio        : 16:9
  23. Frame rate mode             : Constant
  24. Frame rate                  : 23.976 (24000/1001) FPS
  25. Color space                 : YUV
  26. Chroma subsampling          : 4:2:0
  27. Bit depth                   : 8 bits
  28. Bits/(Pixel*Frame)          : 0.090
  29. Stream size                 : 3.46 GiB (66%)
  30. Title                       : BD50 - ChrisHD
  31. Writing library             : x265 2.9:[Windows][GCC 8.2.0][64 bit] 8bit+10bit+12bit
  32. Encoding settings           : cpuid=1111039 / frame-threads=3 / numa-pools=8 / wpp / no-pmode / no-pme / no-psnr / no-ssim / log-level=2 / input-csp=1 / input-res=1920x1080 / interlace=0 / total-frames=0 / level-idc=0 / high-tier=1 / uhd-bd=0 / ref=4 / no-allow-non-conformance / no-repeat-headers / annexb / no-aud / no-hrd / info / hash=0 / no-temporal-layers / open-gop / min-keyint=24 / keyint=240 / gop-lookahead=0 / bframes=8 / b-adapt=2 / b-pyramid / bframe-bias=0 / rc-lookahead=25 / lookahead-slices=4 / scenecut=40 / radl=0 / no-intra-refresh / ctu=64 / min-cu-size=8 / rect / no-amp / max-tu-size=32 / tu-inter-depth=1 / tu-intra-depth=1 / limit-tu=0 / rdoq-level=2 / dynamic-rd=0.00 / no-ssim-rd / signhide / no-tskip / nr-intra=0 / nr-inter=0 / no-constrained-intra / strong-intra-smoothing / max-merge=3 / limit-refs=3 / limit-modes / me=3 / subme=3 / merange=57 / temporal-mvp / weightp / no-weightb / no-analyze-src-pics / deblock=0:0 / sao / no-sao-non-deblock / rd=4 / no-early-skip / rskip / no-fast-intra / no-tskip-fast / no-cu-lossless / no-b-intra / no-splitrd-skip / rdpenalty=0 / psy-rd=2.00 / psy-rdoq=1.00 / no-rd-refine / no-lossless / cbqpoffs=0 / crqpoffs=0 / rc=crf / crf=20.0 / qcomp=0.60 / qpstep=4 / stats-write=0 / stats-read=0 / ipratio=1.40 / pbratio=1.30 / aq-mode=1 / aq-strength=1.00 / cutree / zone-count=0 / no-strict-cbr / qg-size=32 / no-rc-grain / qpmax=69 / qpmin=0 / no-const-vbv / sar=1 / overscan=0 / videoformat=5 / range=0 / colorprim=1 / transfer=1 / colormatrix=1 / chromaloc=0 / display-window=0 / max-cll=0,0 / min-luma=0 / max-luma=255 / log2-max-poc-lsb=8 / vui-timing-info / vui-hrd-info / slices=1 / no-opt-qp-pps / no-opt-ref-list-length-pps / no-multi-pass-opt-rps / scenecut-bias=0.05 / no-opt-cu-delta-qp / no-aq-motion / no-hdr / no-hdr-opt / no-dhdr10-opt / no-idr-recovery-sei / analysis-reuse-level=5 / scale-factor=0 / refine-intra=0 / refine-inter=0 / refine-mv=0 / no-limit-sao / ctu-info=0 / no-lowpass-dct / refine-mv-type=0 / copy-pic=1 / max-ausize-factor=1.0 / no-dynamic-refine / no-single-sei
  33. Language                    : English
  34. Default                     : Yes
  35. Forced                      : Yes
  36. Color range                 : Limited
  37. Color primaries             : BT.709
  38. Transfer characteristics    : BT.709
  39. Matrix coefficients         : BT.709
  40.  
  41. Audio #1
  42. ID                          : 2
  43. Format                      : DTS
  44. Format/Info                 : Digital Theater Systems
  45. Codec ID                    : A_DTS
  46. Duration                    : 1 h 50 min
  47. Bit rate mode               : Constant
  48. Bit rate                    : 1 509 kb/s
  49. Channel(s)                  : 6 channels
  50. Channel positions           : Front: L C R, Side: L R, LFE
  51. Sampling rate               : 48.0 kHz
  52. Frame rate                  : 93.750 FPS (512 SPF)
  53. Bit depth                   : 24 bits
  54. Compression mode            : Lossy
  55. Stream size                 : 1.16 GiB (22%)
  56. Title                       : Inglés - ChrisHD [DTS]
  57. Language                    : English
  58. Default                     : Yes
  59. Forced                      : Yes
  60.  
  61. Audio #2
  62. ID                          : 3
  63. Format                      : AC-3
  64. Format/Info                 : Audio Coding 3
  65. Codec ID                    : A_AC3
  66. Duration                    : 1 h 50 min
  67. Bit rate mode               : Constant
  68. Bit rate                    : 384 kb/s
  69. Channel(s)                  : 6 channels
  70. Channel positions           : Front: L C R, Side: L R, LFE
  71. Sampling rate               : 48.0 kHz
  72. Frame rate                  : 31.250 FPS (1536 SPF)
  73. Bit depth                   : 16 bits
  74. Compression mode            : Lossy
  75. Stream size                 : 303 MiB (6%)
  76. Title                       : Inglés - ChrisHD [AC-3]
  77. Language                    : English
  78. Service kind                : Complete Main
  79. Default                     : No
  80. Forced                      : No
  81.  
  82. Audio #3
  83. ID                          : 4
  84. Format                      : AC-3
  85. Format/Info                 : Audio Coding 3
  86. Codec ID                    : A_AC3
  87. Duration                    : 1 h 50 min
  88. Bit rate mode               : Constant
  89. Bit rate                    : 448 kb/s
  90. Channel(s)                  : 6 channels
  91. Channel positions           : Front: L C R, Side: L R, LFE
  92. Sampling rate               : 48.0 kHz
  93. Frame rate                  : 31.250 FPS (1536 SPF)
  94. Bit depth                   : 16 bits
  95. Compression mode            : Lossy
  96. Stream size                 : 354 MiB (7%)
  97. Title                       : Latino - ChrisHD [AC-3]
  98. Language                    : Spanish
  99. Service kind                : Complete Main
  100. Default                     : No
  101. Forced                      : No
  102.  
  103. Text #1
  104. ID                          : 5
  105. Format                      : UTF-8
  106. Codec ID                    : S_TEXT/UTF8
  107. Codec ID/Info               : UTF-8 Plain Text
  108. Duration                    : 1 h 42 min
  109. Bit rate                    : 56 b/s
  110. Count of elements           : 1442
  111. Stream size                 : 42.8 KiB (0%)
  112. Title                       : Latino - ChrisHD [SRT]
  113. Language                    : Spanish
  114. Default                     : Yes
  115. Forced                      : Yes
  116.  
  117. Text #2
  118. ID                          : 6
  119. Format                      : UTF-8
  120. Codec ID                    : S_TEXT/UTF8
  121. Codec ID/Info               : UTF-8 Plain Text
  122. Duration                    : 1 h 48 min
  123. Bit rate                    : 33 b/s
  124. Count of elements           : 519
  125. Stream size                 : 27.1 KiB (0%)
  126. Title                       : Forzados - ChrisHD [SRT]
  127. Language                    : Spanish
  128. Default                     : No
  129. Forced                      : No
  130.  
  131. Menu
  132. 00:00:00.000                : :Preparing for Battle (Main Titles)
  133. 00:03:11.941                : :The Shelter
  134. 00:10:07.898                : :8 Mile Road
  135. 00:14:51.724                : :The Franchise
  136. 00:19:51.356                : :Sweet Home Alabama
  137. 00:23:31.034                : :Saturday Night in the D
  138. 00:27:20.889                : :The Chin Tiki
  139. 00:34:40.870                : :Alex
  140. 00:38:59.795                : :Burn It Down
  141. 00:46:49.389                : :I Got Your Back
  142. 00:52:54.337                : :The Lunch Truck
  143. 01:01:47.870                : :This Ain't My Home
  144. 01:06:02.416                : :Eviction Situation
  145. 01:11:44.133                : :Domestic Disturbance
  146. 01:13:47.965                : :Wjlb (313 Baby, Love)
  147. 01:16:44.933                : :Papa Doc Payback
  148. 01:24:30.732                : :The Cripple Convention
  149. 01:27:56.437                : :Rabbit Finds His Voice
  150. 01:38:19.143                : :Final Face-Off
  151. 01:43:30.537                : :Where We Goin'
  152. 01:45:29.114                : :Loose Yourself (End Titles)
RAW Paste Data
We use cookies for various purposes including analytics. By continuing to use Pastebin, you agree to our use of cookies as described in the Cookies Policy. OK, I Understand
 
Top