HYBRID_BEING

[TenchouSubs] Ajin - 03 (TBS 1280x720 x264 AAC).mkv

Nov 17th, 2016
132
Never
Not a member of Pastebin yet? Sign Up, it unlocks many cool features!
  1. General
  2. Unique ID : 164060830650080758675511672430819693947 (0x7B6CF7760C0456EAF2A855EBD2CA557B)
  3. Complete name : [TenchouSubs] Ajin - 03 (TBS 1280x720 x264 AAC).mkv
  4. Format : Matroska
  5. Format version : Version 4 / Version 2
  6. File size : 399 MiB
  7. Duration : 24mn 27s
  8. Overall bit rate : 2 279 Kbps
  9. Encoded date : UTC 2016-02-02 17:26:03
  10. Writing application : mkvmerge v8.8.0 ('Wind at my back') 64bit
  11. Writing library : libebml v1.3.3 + libmatroska v1.4.4
  12. Attachments : DAYROM__.ttf / NotoSans-Bold.ttf / NotoSans-BoldItalic.ttf / NotoSans-Italic.ttf / NotoSans-Regular.ttf / Postamt.ttf / JosefinSlab-Bold.ttf / JosefinSlab-BoldItalic.ttf / JosefinSlab-Italic.ttf / JosefinSlab-Light.ttf / JosefinSlab-LightItalic.ttf / JosefinSlab-Regular.ttf / JosefinSlab-SemiBold.ttf / JosefinSlab-SemiBoldItalic.ttf / JosefinSlab-Thin.ttf / JosefinSlab-ThinItalic.ttf / Kinnari-Bold.ttf / Kinnari-BoldItalic.ttf / Kinnari-BoldOblique.ttf / Kinnari-Italic.ttf / Kinnari-Oblique.ttf / Kinnari.ttf / Quicksand-Bold.ttf / Quicksand-Light.ttf / Quicksand-Regular.ttf
  13.  
  14. Video
  15. ID : 1
  16. Format : AVC
  17. Format/Info : Advanced Video Codec
  18. Format profile : Main@L4.1
  19. Format settings, CABAC : Yes
  20. Format settings, ReFrames : 4 frames
  21. Codec ID : V_MPEG4/ISO/AVC
  22. Duration : 24mn 27s
  23. Bit rate : 2 046 Kbps
  24. Width : 1 280 pixels
  25. Height : 720 pixels
  26. Display aspect ratio : 16:9
  27. Frame rate mode : Constant
  28. Frame rate : 23.976 (24000/1001) fps
  29. Color space : YUV
  30. Chroma subsampling : 4:2:0
  31. Bit depth : 8 bits
  32. Scan type : Progressive
  33. Bits/(Pixel*Frame) : 0.093
  34. Stream size : 358 MiB (90%)
  35. Writing library : x264 core 148 r2665 a01e339
  36. Encoding settings : cabac=1 / ref=3 / deblock=1:0:0 / analyse=0x1:0x111 / me=hex / subme=7 / psy=1 / psy_rd=1.00:0.00 / mixed_ref=1 / me_range=16 / chroma_me=1 / trellis=1 / 8x8dct=0 / cqm=0 / deadzone=21,11 / fast_pskip=1 / chroma_qp_offset=-2 / threads=12 / lookahead_threads=2 / sliced_threads=0 / nr=0 / decimate=1 / interlaced=0 / bluray_compat=0 / constrained_intra=0 / bframes=3 / b_pyramid=2 / b_adapt=1 / b_bias=0 / direct=1 / weightb=1 / open_gop=0 / weightp=2 / keyint=240 / keyint_min=1 / scenecut=40 / intra_refresh=0 / rc_lookahead=40 / rc=crf / mbtree=1 / crf=20.0 / qcomp=0.60 / qpmin=0 / qpmax=69 / qpstep=4 / ip_ratio=1.40 / aq=1:1.50
  37. Default : Yes
  38. Forced : No
  39. Color range : Limited
  40. Color primaries : BT.709
  41. Transfer characteristics : BT.709
  42. Matrix coefficients : BT.709
  43.  
  44. Audio
  45. ID : 2
  46. Format : AAC
  47. Format/Info : Advanced Audio Codec
  48. Format profile : LC
  49. Codec ID : A_AAC
  50. Duration : 24mn 27s
  51. Bit rate : 213 Kbps
  52. Channel(s) : 2 channels
  53. Channel positions : Front: L R
  54. Sampling rate : 48.0 KHz
  55. Frame rate : 46.875 fps (1024 spf)
  56. Compression mode : Lossy
  57. Stream size : 37.2 MiB (9%)
  58. Title : Japanese
  59. Language : Japanese
  60. Default : Yes
  61. Forced : No
  62.  
  63. Text
  64. ID : 3
  65. Format : ASS
  66. Codec ID : S_TEXT/ASS
  67. Codec ID/Info : Advanced Sub Station Alpha
  68. Duration : 24mn 26s
  69. Bit rate : 2 036 bps
  70. Count of elements : 2299
  71. Compression mode : Lossless
  72. Stream size : 365 KiB (0%)
  73. Title : TenchouSubs
  74. Language : English
  75. Default : Yes
  76. Forced : No
RAW Paste Data