SHARE
TWEET

Untitled

Interfilm Jun 11th, 2014 189 Never
Not a member of Pastebin yet? Sign Up, it unlocks many cool features!
  1. General
  2. Lords.Of.London.2014.Blu.Ray.1080p.CINEMANIA.mkv
  3. Format : Matroska
  4. Format version : Version 4 / Version 2
  5. File size : 6.95 GiB
  6. Duration : 1h 32mn
  7. Overall bit rate : 10.8 Mbps
  8. Movie name : Release Group CINEMANIA
  9. Encoded date : UTC 2014-06-11 20:18:18
  10. Writing application : mkvmerge v7.0.0 ('Where We Going') 64bit built on Jun 9 2014 15:16:27
  11. Writing library : libebml v1.3.0 + libmatroska v1.4.1
  12.  
  13. Video
  14. ID : 1
  15. Format : AVC
  16. Format/Info : Advanced Video Codec
  17. Format profile : High@L4.1
  18. Format settings, CABAC : Yes
  19. Format settings, ReFrames : 5 frames
  20. Codec ID : V_MPEG4/ISO/AVC
  21. Duration : 1h 32mn
  22. Bit rate : 9 100 Kbps
  23. Width : 1 920 pixels
  24. Height : 816 pixels
  25. Display aspect ratio : 2.35:1
  26. Frame rate mode : Constant
  27. Frame rate : 25.000 fps
  28. Color space : YUV
  29. Chroma subsampling : 4:2:0
  30. Bit depth : 8 bits
  31. Scan type : Progressive
  32. Bits/(Pixel*Frame) : 0.232
  33. Stream size : 5.72 GiB (82%)
  34. Title : Release Group CINEMANIA
  35. Writing library : x264 core 130 r2273 b3065e6
  36. Encoding settings : cabac=1 / ref=5 / deblock=1:-1:-1 / analyse=0x3:0x133 / me=umh / subme=9 / psy=1 / psy_rd=1.00:0.15 / mixed_ref=1 / me_range=24 / chroma_me=1 / trellis=2 / 8x8dct=1 / cqm=0 / deadzone=21,11 / fast_pskip=0 / chroma_qp_offset=-3 / threads=12 / lookahead_threads=1 / sliced_threads=0 / nr=0 / decimate=1 / interlaced=0 / bluray_compat=0 / constrained_intra=0 / bframes=6 / b_pyramid=2 / b_adapt=2 / b_bias=0 / direct=1 / weightb=1 / open_gop=0 / weightp=2 / keyint=250 / keyint_min=25 / scenecut=40 / intra_refresh=0 / rc_lookahead=50 / rc=2pass / mbtree=1 / bitrate=9100 / ratetol=1.0 / qcomp=0.60 / qpmin=0 / qpmax=69 / qpstep=4 / cplxblur=20.0 / qblur=0.5 / vbv_maxrate=40000 / vbv_bufsize=40000 / nal_hrd=none / ip_ratio=1.40 / aq=1:1.00
  37. Language : English
  38. Default : Yes
  39. Forced : No
  40. Color primaries : BT.709
  41. Transfer characteristics : BT.709
  42. Matrix coefficients : BT.709
  43.  
  44. Audio #1
  45. ID : 2
  46. Format : AC-3
  47. Format/Info : Audio Coding 3
  48. Mode extension : CM (complete main)
  49. Format settings, Endianness : Big
  50. Codec ID : A_AC3
  51. Duration : 1h 32mn
  52. Bit rate mode : Constant
  53. Bit rate : 192 Kbps
  54. Channel(s) : 2 channels
  55. Channel positions : Front: L R
  56. Sampling rate : 48.0 KHz
  57. Bit depth : 16 bits
  58. Compression mode : Lossy
  59. Stream size : 127 MiB (2%)
  60. Title : Нтв+
  61. Language : Russian
  62. Default : Yes
  63. Forced : Yes
  64.  
  65. Audio #2
  66. ID : 3
  67. Format : DTS
  68. Format/Info : Digital Theater Systems
  69. Mode : 16
  70. Format settings, Endianness : Big
  71. Codec ID : A_DTS
  72. Duration : 1h 32mn
  73. Bit rate mode : Constant
  74. Bit rate : 1 509 Kbps
  75. Channel(s) : 6 channels
  76. Channel positions : Front: L C R, Side: L R, LFE
  77. Sampling rate : 48.0 KHz
  78. Bit depth : 16 bits
  79. Compression mode : Lossy
  80. Stream size : 995 MiB (14%)
  81. Language : English
  82. Default : No
  83. Forced : No
  84.  
  85. Menu
  86. 00:00:00.000 : en:Chapter 1
  87. 00:15:09.640 : en:Chapter 2
  88. 00:32:39.959 : en:Chapter 3
  89. 00:45:10.239 : en:Chapter 4
  90. 00:59:54.680 : en:Chapter 5
  91. 01:14:33.840 : en:Chapter 6
RAW Paste Data
We use cookies for various purposes including analytics. By continuing to use Pastebin, you agree to our use of cookies as described in the Cookies Policy. OK, I Understand
 
Top