Guest User

E01

a guest
Feb 4th, 2018
496
Never
Not a member of Pastebin yet? Sign Up, it unlocks many cool features!
  1. General
  2. Unique ID : 120526569399434509979798944363427910623 (0x5AAC92AA3BE33D258C9F549BF2F7D3DF)
  3. Complete name : [bonkai77].Made.in.Abyss.Episode.01.[BD.1080p.x265.HEVC.10bit].mkv
  4. Format : Matroska
  5. Format version : Version 4 / Version 2
  6. File size : 189 MiB
  7. Duration : 23 min 41 s
  8. Overall bit rate : 1 113 kb/s
  9. Movie name : [bonkai77].Made.in.Abyss.Episode.01.[BD.1080p.x265.HEVC.10bit]
  10. Encoded date : UTC 2018-01-05 13:46:01
  11. Writing application : mkvmerge v19.0.0 ('Brave Captain') 64-bit
  12. Writing library : libebml v1.3.5 + libmatroska v1.4.8
  13. Attachments : CronosPro-SemiboldIt.ttf / playtime.ttf / saru(sRB).TTF / CronosPro-Semibold.ttf
  14. Writing frontend : StaxRip v1.6.1.2
  15.  
  16. Video
  17. ID : 2
  18. Format : HEVC
  19. Format/Info : High Efficiency Video Coding
  20. Format profile : Main 10@L4@Main
  21. Codec ID : V_MPEGH/ISO/HEVC
  22. Duration : 23 min 41 s
  23. Bit rate : 996 kb/s
  24. Width : 1 920 pixels
  25. Height : 1 080 pixels
  26. Display aspect ratio : 16:9
  27. Frame rate mode : Constant
  28. Frame rate : 23.976 (24000/1001) FPS
  29. Color space : YUV
  30. Chroma subsampling : 4:2:0
  31. Bit depth : 10 bits
  32. Bits/(Pixel*Frame) : 0.020
  33. Stream size : 169 MiB (90%)
  34. Title : [bonkai77]
  35. Writing library : x265 2.6+22-ff02513b92c0:[Windows][GCC 6.3.0][64 bit] 10bit
  36. Encoding settings : cpuid=1050111 / frame-threads=3 / numa-pools=8 / wpp / no-pmode / no-pme / no-psnr / no-ssim / log-level=2 / input-csp=1 / input-res=1920x1080 / interlace=0 / total-frames=34093 / level-idc=0 / high-tier=1 / uhd-bd=0 / ref=4 / no-allow-non-conformance / no-repeat-headers / annexb / no-aud / no-hrd / info / hash=0 / no-temporal-layers / open-gop / min-keyint=23 / keyint=250 / gop-lookahead=0 / bframes=8 / b-adapt=2 / b-pyramid / bframe-bias=0 / rc-lookahead=30 / lookahead-slices=4 / scenecut=40 / radl=0 / no-intra-refresh / ctu=32 / min-cu-size=8 / rect / no-amp / max-tu-size=16 / tu-inter-depth=2 / tu-intra-depth=2 / limit-tu=4 / rdoq-level=2 / dynamic-rd=0.00 / no-ssim-rd / signhide / no-tskip / nr-intra=0 / nr-inter=0 / no-constrained-intra / no-strong-intra-smoothing / max-merge=3 / limit-refs=2 / limit-modes / me=3 / subme=3 / merange=57 / temporal-mvp / weightp / weightb / no-analyze-src-pics / deblock=0:0 / no-sao / no-sao-non-deblock / rd=6 / no-early-skip / rskip / no-fast-intra / no-tskip-fast / no-cu-lossless / b-intra / no-splitrd-skip / rdpenalty=0 / psy-rd=2.00 / psy-rdoq=1.00 / no-rd-refine / no-lossless / cbqpoffs=0 / crqpoffs=0 / rc=crf / crf=23.0 / qcomp=0.60 / qpstep=4 / stats-write=0 / stats-read=0 / ipratio=1.40 / pbratio=1.30 / aq-mode=2 / aq-strength=1.00 / cutree / zone-count=0 / no-strict-cbr / qg-size=32 / no-rc-grain / qpmax=69 / qpmin=0 / no-const-vbv / sar=0 / overscan=0 / videoformat=5 / range=0 / colorprim=2 / transfer=2 / colormatrix=2 / chromaloc=0 / display-window=0 / max-cll=0,0 / min-luma=0 / max-luma=1023 / log2-max-poc-lsb=8 / vui-timing-info / vui-hrd-info / slices=1 / no-opt-qp-pps / no-opt-ref-list-length-pps / no-multi-pass-opt-rps / scenecut-bias=0.05 / no-opt-cu-delta-qp / no-aq-motion / no-hdr / no-hdr-opt / no-dhdr10-opt / analysis-save=(null) / analysis-load=(null) / analysis-reuse-level=5 / scale-factor=0 / refine-intra=0 / refine-inter=0 / refine-mv=0 / no-limit-sao / ctu-info=0 / no-lowpass-dct / refine-mv-type=0 / copy-pic=1
  37. Default : Yes
  38. Forced : No
  39.  
  40. Audio
  41. ID : 3
  42. Format : AAC
  43. Format/Info : Advanced Audio Codec
  44. Format profile : LC
  45. Codec ID : A_AAC-2
  46. Duration : 23 min 41 s
  47. Bit rate : 112 kb/s
  48. Channel(s) : 2 channels
  49. Channel positions : Front: L R
  50. Sampling rate : 48.0 kHz
  51. Frame rate : 46.875 FPS (1024 SPF)
  52. Compression mode : Lossy
  53. Delay relative to video : 21 ms
  54. Stream size : 19.0 MiB (10%)
  55. Language : Japanese
  56. Default : No
  57. Forced : No
  58.  
  59. Text
  60. ID : 1
  61. Format : ASS
  62. Codec ID : S_TEXT/ASS
  63. Codec ID/Info : Advanced Sub Station Alpha
  64. Duration : 23 min 36 s
  65. Bit rate : 122 b/s
  66. Count of elements : 353
  67. Compression mode : Lossless
  68. Stream size : 21.1 KiB (0%)
  69. Title : English Subs [PAS]
  70. Language : English
  71. Default : Yes
  72. Forced : No
  73.  
  74. Menu
  75. 00:00:00.000 : :Prologue
  76. 00:08:17.956 : :Part A
  77. 00:13:28.975 : :Part B
  78. 00:22:00.027 : :ED
  79. 00:23:29.950 : :Preview
RAW Paste Data