Interfilm

Untitled

Jun 12th, 2014
236
Never
Not a member of Pastebin yet? Sign Up, it unlocks many cool features!
  1. General
  2. Flowers.in.the.Attic.2014.WEB-DL.720p.CINEMANIA.mkv
  3. Format : Matroska
  4. Format version : Version 4 / Version 2
  5. File size : 2.81 GiB
  6. Duration : 1h 29mn
  7. Overall bit rate : 4 474 Kbps
  8. Movie name : Release Group CINEMANIA
  9. Encoded date : UTC 2014-06-12 16:08:42
  10. Writing application : mkvmerge v7.0.0 ('Where We Going') 64bit built on Jun 9 2014 15:16:27
  11. Writing library : libebml v1.3.0 + libmatroska v1.4.1
  12.  
  13. Video
  14. ID : 1
  15. Format : AVC
  16. Format/Info : Advanced Video Codec
  17. Format profile : High@L3.1
  18. Format settings, CABAC : No
  19. Format settings, ReFrames : 2 frames
  20. Codec ID : V_MPEG4/ISO/AVC
  21. Duration : 1h 29mn
  22. Width : 1 280 pixels
  23. Height : 716 pixels
  24. Display aspect ratio : 16:9
  25. Frame rate mode : Constant
  26. Frame rate : 23.976 fps
  27. Color space : YUV
  28. Chroma subsampling : 4:2:0
  29. Bit depth : 8 bits
  30. Scan type : Progressive
  31. Title : Release Group CINEMANIA
  32. Language : English
  33. Default : Yes
  34. Forced : No
  35. Color primaries : BT.709
  36. Transfer characteristics : BT.709
  37. Matrix coefficients : BT.709
  38.  
  39. Audio #1
  40. ID : 2
  41. Format : AC-3
  42. Format/Info : Audio Coding 3
  43. Mode extension : CM (complete main)
  44. Format settings, Endianness : Big
  45. Codec ID : A_AC3
  46. Duration : 1h 29mn
  47. Bit rate mode : Constant
  48. Bit rate : 256 Kbps
  49. Channel(s) : 2 channels
  50. Channel positions : Front: L R
  51. Sampling rate : 48.0 KHz
  52. Bit depth : 16 bits
  53. Compression mode : Lossy
  54. Stream size : 165 MiB (6%)
  55. Title : Александр Харченко
  56. Language : Russian
  57. Default : Yes
  58. Forced : Yes
  59.  
  60. Audio #2
  61. ID : 3
  62. Format : AC-3
  63. Format/Info : Audio Coding 3
  64. Mode extension : CM (complete main)
  65. Format settings, Endianness : Big
  66. Codec ID : A_AC3
  67. Duration : 1h 29mn
  68. Bit rate mode : Constant
  69. Bit rate : 256 Kbps
  70. Channel(s) : 2 channels
  71. Channel positions : Front: L R
  72. Sampling rate : 48.0 KHz
  73. Bit depth : 16 bits
  74. Compression mode : Lossy
  75. Stream size : 165 MiB (6%)
  76. Language : English
  77. Default : No
  78. Forced : No
  79.  
  80. Text #1
  81. ID : 4
  82. Format : UTF-8
  83. Codec ID : S_TEXT/UTF8
  84. Codec ID/Info : UTF-8 Plain Text
  85. Title : peacock
  86. Language : Russian
  87. Default : No
  88. Forced : No
  89.  
  90. Text #2
  91. ID : 5
  92. Format : UTF-8
  93. Codec ID : S_TEXT/UTF8
  94. Codec ID/Info : UTF-8 Plain Text
  95. Title : CC
  96. Language : English
  97. Default : No
  98. Forced : No
RAW Paste Data